Статистика раздачи
Размер:  1,41 GB   |    Зарегистрирован:  8 месяцев 3 дня   |    Скачан:  0 раз
Сидов:  15  [  0 KB/s  ]  
 
     
 
 

солнышко ®

Пол:
Не указан
Стаж:
8 месяцев 29 дней
Сообщений:
565

Удачи тебе, Ворчун / Ilosia aikoja, Mielensäpahoittaja
Страна: Финляндия
Жанр: Драма, комедия
Год выпуска: 2018
Продолжительность: 01:50:35
Перевод: Одноголосый закадровый (Cmert)
Субтитры: нет
Оригинальная аудиодорожка: нет
Режиссер: Тийна Люми / Tiina Lymi
В ролях: Хейкки Киннунен, Сату Туули Карху, Элина Книхтиля, Яни Воланен, Иикка Форсс, Мари Перанкоски, Сулеви Пелтола, Янне Реинкаинен, Лотта Каихуа, Петра Фрэй...
Описание: Ворчун хочет умереть, потому что вся работа уже проделана и смысл жизни пропал. Но вместе с мрачными мыслями к нему неожиданно приходит новая забота. Его 17-летняя внучка София оказалась в беде, и остро нуждается в упрямстве и мудрости своего деда. Так Ворчун обретает новый смысл жизни и желание раскрыть тайну. Колючий, как еж, старик и молодая городская девушка собираются вместе. Две половинки целого готовы слиться воедино.
Сэмпл: http://multi-up.com/1228669
Качество видео: WEB-DLRip
Формат видео: AVI
Видео: 720x304 (2.37:1), 23.976 fps, XviD build 50 ~1693 kbps avg, 0.32 bit/pixel
Аудио: 44.100 kHz, MPEG Layer 3, 2 ch, ~128.00 kbps avg

MediaInfo

Format : AVI
Format/Info : Audio Video Interleave
File size : 1.41 GiB
Duration : 1h 50mn
Overall bit rate : 1 831 Kbps
Writing application : VirtualDubMod 1.5.10.2 (build 2540/release)
Writing library : VirtualDubMod build 2540/release
Video
ID : 0
Format : MPEG-4 Visual
Format profile : Advanced Simple@L5
Format settings, BVOP : 1
Format settings, QPel : No
Format settings, GMC : No warppoints
Format settings, Matrix : Default (MPEG)
Codec ID : XVID
Codec ID/Hint : XviD
Duration : 1h 50mn
Bit rate : 1 694 Kbps
Width : 720 pixels
Height : 304 pixels
Display aspect ratio : 2.35:1
Frame rate : 23.976 fps
Color space : YUV
Chroma subsampling : 4:2:0
Bit depth : 8 bits
Scan type : Progressive
Compression mode : Lossy
Bits/(Pixel*Frame) : 0.323
Stream size : 1.31 GiB (92%)
Writing library : XviD 1.2.1 (UTC 2008-12-04)
Audio
ID : 1
Format : MPEG Audio
Format version : Version 1
Format profile : Layer 3
Mode : Joint stereo
Mode extension : MS Stereo
Codec ID : 55
Codec ID/Hint : MP3
Duration : 1h 50mn
Bit rate mode : Constant
Bit rate : 128 Kbps
Channel(s) : 2 channels
Sampling rate : 44.1 KHz
Compression mode : Lossy
Stream size : 101 MiB (7%)
Alignment : Split accross interleaves
Interleave, duration : 42 ms (1.00 video frame)
Interleave, preload duratio : 500 ms

Скриншот c названием фильма

Скриншоты

[cybertorrent.net].t1822.torrent 
Торрент: Зарегистрирован [ 2019-04-06 16:23 ] · 11542A548642B805903F7851C9E3B66C19485B4E

Скачать .torrent

Скачать

15 KB

Статус: проверено
Скачан: 0 раз
Размер: 1,41 GB
terms.php
Профиль [ЛС]
Показать сообщения:    

Текущее время: 10-Дек 15:29

Часовой пояс: UTC ± 0



Вы не можете начинать темы
Вы не можете отвечать на сообщения
Вы не можете редактировать свои сообщения
Вы не можете удалять свои сообщения
Вы не можете голосовать в опросах
Вы не можете прикреплять файлы к сообщениям
Вы можете скачивать файлы