Статистика раздачи
Размер:  33 MB   |    Зарегистрирован:  8 месяцев 23 дня   |    Скачан:  0 раз

Полного источника не было: Никогда

 
     
 
 

Гость ®

Пол:
Не указан

Ну, погоди! Новогодний выпуск
Страна: Россия
Жанр: мультфильм
Продолжительность: 00:03:33
Год выпуска: 2012
Режиссёр: Рим Шарафутдинов
Описание: Короткий, не номерной выпуск "Ну, погоди!", рассказывающий о приключениях Волка и Зайца под Новый Год.
Качество: WEBRip-AVC
Формат: MP4
Видео: 1188 kbps, 1280х720 (16:9), 25.000 fps, AVC (High@L3.1)
Аудио: 126 kbps, 44.1 kHz, 2 channels, AAC (LC)
Субтитры: отсутствуют

Подробные технические данные

General
Complete name : Ну, погоди! Новогодний выпуск (2012).mp4
Format : MPEG-4
Format profile : Base Media / Version 2
Codec ID : mp42
File size : 33.5 MiB
Duration : 3mn 33s
Overall bit rate mode : Variable
Overall bit rate : 1 317 Kbps
Encoded date : UTC 2016-08-23 19:27:07
Tagged date : UTC 2016-08-23 19:27:07
gsst : 0
gstd : 213112
Video
ID : 1
Format : AVC
Format/Info : Advanced Video Codec
Format profile : Main@L3.1
Format settings, CABAC : Yes
Format settings, ReFrames : 3 frames
Codec ID : avc1
Codec ID/Info : Advanced Video Coding
Duration : 3mn 33s
Bit rate : 1 188 Kbps
Width : 1 280 pixels
Height : 720 pixels
Display aspect ratio : 16:9
Frame rate mode : Constant
Frame rate : 25.000 fps
Color space : YUV
Chroma subsampling : 4:2:0
Bit depth : 8 bits
Scan type : Progressive
Bits/(Pixel*Frame) : 0.052
Stream size : 30.2 MiB (90%)
Title : ISO Media file produced by Google Inc.
Encoded date : UTC 2016-08-23 19:27:07
Tagged date : UTC 2016-08-23 19:27:07
Audio
ID : 2
Format : AAC
Format/Info : Advanced Audio Codec
Format profile : LC
Codec ID : 40
Duration : 3mn 33s
Bit rate mode : Variable
Bit rate : 126 Kbps
Channel(s) : 2 channels
Channel positions : Front: L R
Sampling rate : 44.1 KHz
Compression mode : Lossy
Stream size : 3.19 MiB (10%)
Title : ISO Media file produced by Google Inc.
Encoded date : UTC 2016-08-23 19:27:07
Tagged date : UTC 2016-08-23 19:27:07

Скриншоты

[cybertorrent.net].t182.torrent 
Торрент: Зарегистрирован [ 2019-03-18 10:04 ] · 71523CA89765175CFC1486E39466BBAC92BCAC89

Скачать .torrent

Скачать

11 KB

Статус: проверено
Скачан: 0 раз
Размер: 33 MB
terms.php
Показать сообщения:    

Текущее время: 11-Дек 07:05

Часовой пояс: UTC ± 0



Вы не можете начинать темы
Вы не можете отвечать на сообщения
Вы не можете редактировать свои сообщения
Вы не можете удалять свои сообщения
Вы не можете голосовать в опросах
Вы не можете прикреплять файлы к сообщениям
Вы можете скачивать файлы