Статистика раздачи
Размер:  1,13 GB   |    Зарегистрирован:  1 месяц 3 дня   |    Скачан:  0 раз
DL-List: Нет

Полного источника не было: Никогда

 
     
 
 

MAGNAT ®

Пол:
Мужской
Стаж:
1 год 1 месяц
Сообщений:
7558

Елена Прекрасная
Год выпуска: 2019
Производство: Украина, Латвия, Art Forms Production
Жанр: Мелодрама
Продолжительность: ~ 00:45:00
Перевод: Не требуется
Субтитры: Нет
Режиссёр: Вера Яковенко
В ролях: Александр Давыдов (IV), Антон Батырев, Елизавета Майская, Ольга Ларина, Константин Октябрьский, Юрий Фелипенко, Игорь Иващенко, Слава Красовская, Михаил Аугуст, Анатолий Борсюк, Станислав Флоренцев
Описание: Дмитрий Ресничкин – автор популярных романов. Его книгами зачитываются миллионы женщин. Но читательницы не знают о том, что на обложках его произведений красуется фотография и имя совсем другого человека – Эдуарда Громова, который, на самом деле, всего лишь издатель. Почему же пишет один, а вся слава достается другому?
Качество: HDTVRip
Формат: AVI
Видео кодек: XviD
Аудио кодек: AC3
Видео: 720x400 (1.80:1), 25 fps, XviD, ~1610 kbps avg, 0.224 bit/pixe
Аудио: 48.0 kHz, AC3 Dolby Digital, 2/0 (L,R) ch, ~ 192 kbps

MI

General
Complete name : C:01.Елена Прекрасная.(2019).HDTVRip.by.Nicodem.Files-x.avi
Format : AVI
Format/Info : Audio Video Interleave
File size : 580 MiB
Duration : 44mn 45s
Overall bit rate : 1 812 Kbps
Writing application : VirtualDubMod 1.5.10.3 | www.virtualdub-fr.org || (build 2550/release)
Writing library : VirtualDubMod build 2550/release
Video
ID : 0
Format : MPEG-4 Visual
Format profile : Advanced Simple@L5
Format settings, BVOP : 1
Format settings, QPel : No
Format settings, GMC : No warppoints
Format settings, Matrix : Custom
Codec ID : XVID
Codec ID/Hint : XviD
Duration : 44mn 45s
Bit rate : 1 610 Kbps
Width : 720 pixels
Height : 400 pixels
Display aspect ratio : 16:9
Frame rate : 25.000 fps
Color space : YUV
Chroma subsampling : 4:2:0
Bit depth : 8 bits
Scan type : Progressive
Compression mode : Lossy
Bits/(Pixel*Frame) : 0.224
Stream size : 516 MiB (89%)
Writing library : XviD 73
Audio
ID : 1
Format : AC-3
Format/Info : Audio Coding 3
Mode extension : CM (complete main)
Codec ID : 2000
Duration : 44mn 45s
Bit rate mode : Constant
Bit rate : 192 Kbps
Channel(s) : 2 channels
Channel positions : Front: L R
Sampling rate : 48.0 KHz
Bit depth : 16 bits
Compression mode : Lossy
Stream size : 61.5 MiB (11%)
Alignment : Split accross interleaves
Interleave, duration : 40 ms (1.00 video frame)
Interleave, preload duration : 500 ms

Скриншоты


[cybertorrent.net].t17828.torrent 
Торрент: Зарегистрирован [ 2020-04-25 12:01 ] · 878C8F82EA216E11CCD9C5F02C316B64B5DA24E3

Скачать .torrent

Скачать

12 KB

Статус: проверено
Скачан: 0 раз
Размер: 1,13 GB  ·  Тип торрента
terms.php
Профиль [ЛС]
Показать сообщения:    

Текущее время: 28-Май 14:17

Часовой пояс: UTC ± 0



Вы не можете начинать темы
Вы не можете отвечать на сообщения
Вы не можете редактировать свои сообщения
Вы не можете удалять свои сообщения
Вы не можете голосовать в опросах
Вы не можете прикреплять файлы к сообщениям
Вы можете скачивать файлы