Статистика раздачи
Размер:  1,37 GB   |    Зарегистрирован:  7 месяцев 9 дней   |    Скачан:  0 раз

Полного источника не было: Никогда

 
     
 
 

serzh ®

Пол:
Не указан
Стаж:
8 месяцев 2 дня
Сообщений:
384

История с привидениями / Рассказ о привидениях / Ghost Story
«The time has come to tell the tale»
Страна: США
Жанр: ужасы, триллер, драма
Год выпуска: 1981
Продолжительность: 01:50:46
Перевод: Профессиональный (двухголосый закадровый) Премьер-Видео
Субтитры: нет
Режиссер: Джон Ирвин / John Irvin
В ролях: Фред Астер, Мелвин Дуглас, Дуглас Фэрбенкс мл., Джон Хаусмен, Крейг Уоссон, Патриша
Нил, Элис Крайдж, Жаклин Брукс, Мигель Фернандес, Лэнс Холкомб
Описание: Что требуется для того, чтобы напугаться по-настоящему? Мрачный дом в Новой
Англии, темная ночь, завывание ветра и четыре человека из так называемого «Общества
Похлебки», где принято развлекать друг друга страшными историями.
Но на этот раз любителям острых ощущений предстоит столкнуться с реальным ужасом, от
которого нет спасения — ужасом, пришедшим из прошлого, чтобы забрать их жизни…
Доп. информация: Дорожка с DVO синхронизирована и наложена ale_x2008 при помощи Adobe Audition, Sony Vegas и VirtualDubMod.
За оцифрованную с VHS дорожку благодарим - alenavova

Релиз
Сэмпл: https://yadi.sk/i/hINaimmIbmq2MQ
Качество видео: HDRip [Ghost.Story.1981.720p.BluRay.FLAC2.0.x264-IDE.mkv]
Формат видео: AVI
Видео: XviD build 73, 704x384 (1.83:1), 23.976 fps, 1567 kbps avg, 0.24 bit/pixel
Аудио: AC3 Dolby Digital, 48000Hz, 2/0 (L,R) ch (mono), 192 kbps avg

MediaInfo

История с привидениями - Ghost Story (by ale_x2008).avi
Format : AVI
Format/Info : Audio Video Interleave
File size : 1.37 GiB
Duration : 1 h 50 min
Overall bit rate : 1 769 kb/s
Movie name : История с привидениями - Ghost Story (by ale_x2008)
Director : by ale_x2008
Writing application : VirtualDubMod 1.5.10.2 (build 2540/release)
Copyright : Edich2
Comment : Rutracker.org
Video
ID : 0
Format : MPEG-4 Visual
Format profile : Advanced Simple@L5
Format settings : BVOP1 / Custom Matrix
Format settings, BVOP : 1
Format settings, QPel : No
Format settings, GMC : No warppoints
Format settings, Matrix : Custom
Codec ID : XVID
Codec ID/Hint : XviD
Duration : 1 h 50 min
Bit rate : 1 568 kb/s
Width : 704 pixels
Height : 384 pixels
Display aspect ratio : 1.85:1
Frame rate : 23.976 (24000/1001) FPS
Color space : YUV
Chroma subsampling : 4:2:0
Bit depth : 8 bits
Scan type : Progressive
Compression mode : Lossy
Bits/(Pixel*Frame) : 0.242
Stream size : 1.21 GiB (89%)
Writing library : XviD 73
Audio
ID : 1
Format : AC-3
Format/Info : Audio Coding 3
Codec ID : 2000
Duration : 1 h 50 min
Bit rate mode : Constant
Bit rate : 192 kb/s
Channel(s) : 2 channels
Channel positions : Front: L R
Sampling rate : 48.0 kHz
Frame rate : 31.250 FPS (1536 SPF)
Bit depth : 16 bits
Compression mode : Lossy
Stream size : 152 MiB (11%)
Alignment : Split accross interleaves
Interleave, duration : 42 ms (1.00 video frame)
Interleave, preload duratio : 500 ms
Service kind : Complete Main

Скриншоты


[cybertorrent.net].t1768.torrent 
Торрент: Зарегистрирован [ 2019-04-05 15:58 ] · E382B841F4CAF7E2458C9C242C4631EEB8B7F16E

Скачать .torrent

Скачать

14 KB

Статус: проверено
Скачан: 0 раз
Размер: 1,37 GB
terms.php
Профиль ЛС
Показать сообщения:    

Текущее время: 14-Ноя 16:46

Часовой пояс: UTC ± 0



Вы не можете начинать темы
Вы не можете отвечать на сообщения
Вы не можете редактировать свои сообщения
Вы не можете удалять свои сообщения
Вы не можете голосовать в опросах
Вы не можете прикреплять файлы к сообщениям
Вы можете скачивать файлы