Статистика раздачи
Размер:  7,03 GB   |    Зарегистрирован:  8 месяцев 6 дней   |    Скачан:  0 раз

Полного источника не было: Никогда

 
     
 
 

Гость ®

Пол:
Не указан

Вокально–криминальный ансамбль- Год выпуска: 2018
Производство: IKa film по заказу телеканала НТВ
Жанр: Детектив, криминал, музыкальный фильм
Продолжительность: 00:45:32
Субтитры: нет-Режиссёр: Степан Коршунов-В ролях: Никита Волков, Иван Добронравов, Евгений Харитонов (II), Артём Волобуев, Любовь Аксёнова, Екатерина Кузнецова (II), Анатолий Белый, Игорь Черневич, Петар Зекавица, Дмитрий Поднозов, Николай Козак, Дмитрий Муляр, Екатерина Кабак, Никита Люшненко, Евгения Бурдихина, Анатолий Голуб, Павел Южаков-Харланчук, Михаил Есьман, Андрей Душечкин, Святослав Астрамович, Максим Кречетов-Описание: Начало 70-х, СССР. Страну захлестнула волна организованной преступности, связанная с вывозом исторических ценностей за рубеж. Явление по тем временам новое, и методы поимки нарушителей, которые не гнушались жестокими убийствам, должны быть нестандартными. В этот же период в разных уголках Союза появляются многочисленные вокально-инструментальные ансамбли. Майор Щукин, которому досталось едва ли не самое запутанное дело, придумывает необычный способ поимки главного подозреваемого — популярного певца по прозвищу Артист. Чтобы проникнуть в, казалось бы, непроницаемую криминальную сеть, Щукин предлагает молодому и перспективному лейтенанту Славе Жукову собрать свою музыкальную группу и внедриться в окружение Артиста. Так появляется новый ВИА, где Славка Жуков солирует, Паштет играет на ударных, Гарик — на клавишных, а Петя — на бас-гитаре. Благодаря своей смекалке Слава быстро попадает в доверие к Артисту, но это лишь первый шаг к разгадке тайны преступного синдиката.- -Качество: SATRip
Формат: AVI
Видео кодек: XviD
Аудио кодек: MP3
Видео: 720x304 (2.35:1), 25.000 fps, XviD build 73, 1640 Kbps
Аудио: 48 kHz, MP3, 2 ch, 192 Kbps
Реклама: Нет

Релиз

Автор рипа: 25Kuzmich

Без Рекламы

MI

General
Complete name : Downloads\Vokalno.Kriminalnyi.ansambl.2018.XviD.SATRip.25Kuzmich
Format : AVI
Format/Info : Audio Video Interleave
File size : 600 MiB
Duration : 45mn 32s
Overall bit rate : 1 842 Kbps
Writing application : VirtualDubMod 1.5.10.3 | www.virtualdub-fr.org || (build 2550/release)
Writing library : VirtualDubMod build 2550/release
Video #0
ID : 0
Format : MPEG-4 Visual
Format profile : Advanced Simple@L5
Format settings, BVOP : 1
Format settings, QPel : No
Format settings, GMC : No warppoints
Format settings, Matrix : Default (MPEG)
Codec ID : XVID
Codec ID/Hint : XviD
Duration : 45mn 32s
Bit rate : 1 640 Kbps
Width : 720 pixels
Height : 304 pixels
Display aspect ratio : 2.35:1
Frame rate : 25.000 fps
Color space : YUV
Chroma subsampling : 4:2:0
Bit depth : 8 bits
Scan type : Progressive
Compression mode : Lossy
Bits/(Pixel*Frame) : 0.300
Stream size : 534 MiB (89%)
Writing library : XviD 73
Audio #1
ID : 1
Format : MPEG Audio
Format version : Version 1
Format profile : Layer 3
Mode : Joint stereo
Codec ID : 55
Codec ID/Hint : MP3
Duration : 45mn 31s
Bit rate mode : Constant
Bit rate : 192 Kbps
Channel(s) : 2 channels
Sampling rate : 48.0 KHz
Compression mode : Lossy
Stream size : 62.5 MiB (10%)
Alignment : Aligned on interleaves
Interleave, duration : 40 ms (1.00 video frame)
Interleave, preload duration : 504 ms
Writing library : LAME3.99r
Encoding settings : -m j -V 4 -q 2 -lowpass 18.6 -b 192

Скриншоты

Внимание! Раздача ведётся путём добавления новых серий:

(1) остановить скачивание,
(2) удалить старый торрент у себя из клиента (старые серии удалять не надо),
(3) скачать новый торрент и запустить его у себя в клиенте вместо старого, при этом указать клиенту путь в старую папку куда и должно происходить скачивание новых серий.
Ваш клиент при этом должен произвести хеширование (проверку) старой папки (если не производит сам - помогите ему сделать это), и будет докачивать только те серии которых у вас ещё нет. Старые серии при этом не удаляются, а продолжают раздаваться!
Eсли вы уже удалили старые серии, то предотвратить повторную закачку старых серий можно, отжав галочку в соответсвующих местах при запуске нового торрента. По возможности, желательно не удалять старые серии как можно дольше чтобы релизёр не столько продолжал раздавать старые серии, а смог сконцентрироваться на новых
.
Предыдущие и альтернативные раздачи
[cybertorrent.net].t1766.torrent 
Торрент: Зарегистрирован [ 2019-04-05 15:58 ] · D8F004444E909CB42214DFB34FAADB37C28C60BF

Скачать .torrent

Скачать

37 KB

Статус: проверено
Скачан: 0 раз
Размер: 7,03 GB
terms.php
Показать сообщения:    

Текущее время: 12-Дек 04:58

Часовой пояс: UTC ± 0



Вы не можете начинать темы
Вы не можете отвечать на сообщения
Вы не можете редактировать свои сообщения
Вы не можете удалять свои сообщения
Вы не можете голосовать в опросах
Вы не можете прикреплять файлы к сообщениям
Вы можете скачивать файлы