Статистика раздачи
Размер:  1,45 GB   |    Зарегистрирован:  8 месяцев 7 дней   |    Скачан:  0 раз

Полного источника не было: Никогда

 
     
 
 

serzh ®

Пол:
Не указан
Стаж:
8 месяцев 30 дней
Сообщений:
384

Вызов / Меч ниндзя / The Challenge
Страна: США, Япония
Жанр: Триллер, боевик
Год выпуска: 1982
Продолжительность: 01:49:22
Перевод: Авторский (одноголосый закадровый) Леонид Володарский
Субтитры: нет
Режиссер: Джон Франкенхаймер / John Frankenheimer
В ролях: Скотт Гленн
Тосиро Мифунэ
Донна Кай Бенц
Ацуо Накамура
Кэлвин Джанг
Клайд Кусацу
Саб Симоно
Киёако Нагаи
Кэнта Фукасаку
Сёго Симада
Описание: Американский боксер Рик оказывается втянутым в конфликт между двумя братьями-японцами Тору и Хидео из-за права обладания древними семейными мечами.
Доп. информация: За звуковую дорожку спасибо Юрий Y7 , а также мне за синхрон дорожки.
Видеоряд взял здесь http://cybertorrent.ru/forum/viewtopic.php?t=5597953
Сэмпл: https://yadi.sk/i/fFAyDrUvYmlVkA
Качество видео: BDRip
Формат видео: AVI
Видео: XviD , 720x384, (1,85:1), 23,976 fps, 1692 Кбит/с
Аудио: AC3 , 48 kHz , 192.00 kbps avg , 2/0 (L,R) ch

MediaInfo

Complete name Меч ниндзя 1982 (Volodarskiy).avi
Format : AVI
Format/Info : Audio Video Interleave
File size : 1.45 GiB
Duration : 1h 49mn
Overall bit rate : 1 893 Kbps
Writing application : VirtualDubMod 1.5.10.2 (build 2540/release)
Writing library : VirtualDub build 35491/release
Video
ID : 0
Format : MPEG-4 Visual
Format profile : Advanced Simple@L5
Format settings, BVOP : 2
Format settings, QPel : No
Format settings, GMC : No warppoints
Format settings, Matrix : Custom
Codec ID : XVID
Codec ID/Hint : XviD
Duration : 1h 49mn
Bit rate : 1 692 Kbps
Width : 720 pixels
Height : 384 pixels
Display aspect ratio : 1.85:1
Frame rate : 23.976 (23976/1000) fps
Color space : YUV
Chroma subsampling : 4:2:0
Bit depth : 8 bits
Scan type : Progressive
Compression mode : Lossy
Bits/(Pixel*Frame) : 0.255
Stream size : 1.29 GiB (89%)
Writing library : XviD 73
Audio
ID : 1
Format : AC-3
Format/Info : Audio Coding 3
Mode extension : CM (complete main)
Format settings, Endianness : Big
Codec ID : 2000
Duration : 1h 49mn
Bit rate mode : Constant
Bit rate : 192 Kbps
Channel(s) : 2 channels
Channel positions : Front: L R
Sampling rate : 48.0 KHz
Frame rate : 31.250 fps (1536 spf)
Compression mode : Lossy
Stream size : 150 MiB (10%)
Alignment : Aligned on interleaves
Interleave, duration : 42 ms (1.00 video frame)
Interleave, preload duratio : 512 ms

Скриншоты

[cybertorrent.net].t1749.torrent 
Торрент: Зарегистрирован [ 2019-04-04 15:32 ] · 4AB9612DD01C6DDD2B53D26BDAD7667852232A3E

Скачать .torrent

Скачать

15 KB

Статус: проверено
Скачан: 0 раз
Размер: 1,45 GB
terms.php
Профиль [ЛС]
Показать сообщения:    

Текущее время: 12-Дек 04:56

Часовой пояс: UTC ± 0



Вы не можете начинать темы
Вы не можете отвечать на сообщения
Вы не можете редактировать свои сообщения
Вы не можете удалять свои сообщения
Вы не можете голосовать в опросах
Вы не можете прикреплять файлы к сообщениям
Вы можете скачивать файлы