Статистика раздачи
Размер:  16,46 GB   |    Зарегистрирован:  7 месяцев 11 дней   |    Скачан:  0 раз

Полного источника не было: Никогда

 
     
 
 

Гость ®

Пол:
Не указан

Остров ненужных людей- Год выпуска: 2012
Производство: Star Media
Жанр: Драма, приключения
Продолжительность: ~ 00:44:00--Режиссёр: Эдуард Парри
В ролях: Дмитрий Ульянов, Эльвира Болгова, Александр Панкратов-Черный, Нелли Пшенная, Константин Милованов, Екатерина Стулова, Александр Робак, Павел Трубинер, Юлия Силаева, Игорь Воробьев и др.-Описание: Преуспевающий бизнесмен Андрей Каморин несчастлив в семейной жизни. Он бы давно бросил жену Лизу, но на нее записано все имущество. После очередного скандала Андрей предлагает ей поехать с ним в круиз под предлогом, что совместное путешествие поможет им наладить отношения...Группа туристов из тринадцати человек, включая Лизу и Андрея, прилетает в азиатскую страну, но вместо экзотического путешествия их ожидает суровое испытание. Потерпев кораблекрушение, они спасаются на необитаемом острове. Несчастным предстоит выживать. Каждый использует свои навыки, чтобы занять нишу в новом социуме. Находит её и Лиза. Начитавшись детективов, она начинает собственное расследование обстоятельств, при которых их пестрая компания оказалась на острове и заставляет всех вспомнить своё прошлое. Лиза обнаруживает странную закономерность: все они когда-то были связаны между собой. Кто-то узнает родственника, кто-то — коллегу либо конкурента, которому мешал. И только Андрей уклоняется от расспросов жены — в своем плане по избавлению от нее он не учел, что поправки в их дальнейшую судьбу внесет не он, а Высшие силы...-- -Качество: HDTVRip
Формат: AVI
Видео кодек: XVID
Аудио кодек: AC3
Видео: 720x400 (16:9), 25.000 fps, ~2000 kbps avg, 0.27 bit/pixel
Аудио: 48.0 KHz, 2 channels, 192 kbps
Субтитры: отсутствуют
Реклама отсутствует
Все раздачи сериала

MI

General
Complete name : G:\Остров ненужных людей (Сезон 1)\Ostrov.Nenuzhnyh.Ljudey.S01E01.HDTVRip.RGzsRutracker.Celta88.avi
Format : AVI
Format/Info : Audio Video Interleave
File size : 683 MiB
Duration : 43 min 21 s
Overall bit rate : 2 202 kb/s
Writing application : VirtualDubMod 1.5.10.3 | www.virtualdub-fr.org || (build 2550/release)
Writing library : VirtualDubMod build 2550/release
Video
ID : 0
Format : MPEG-4 Visual
Format profile : Advanced Simple@L5
Format settings, BVOP : 1
Format settings, QPel : No
Format settings, GMC : No warppoints
Format settings, Matrix : Custom
Codec ID : XVID
Codec ID/Hint : XviD
Duration : 43 min 21 s
Bit rate : 2 000 kb/s
Width : 720 pixels
Height : 400 pixels
Display aspect ratio : 16:9
Frame rate : 25.000 FPS
Color space : YUV
Chroma subsampling : 4:2:0
Bit depth : 8 bits
Scan type : Progressive
Compression mode : Lossy
Bits/(Pixel*Frame) : 0.278
Stream size : 620 MiB (91%)
Writing library : XviD 73
Audio
ID : 1
Format : AC-3
Format/Info : Audio Coding 3
Mode extension : CM (complete main)
Format settings, Endianness : Big
Codec ID : 2000
Duration : 43 min 21 s
Bit rate mode : Constant
Bit rate : 192 kb/s
Channel(s) : 2 channels
Channel positions : Front: L R
Sampling rate : 48.0 kHz
Frame rate : 31.250 FPS (1536 spf)
Bit depth : 16 bits
Compression mode : Lossy
Stream size : 59.5 MiB (9%)
Alignment : Split accross interleaves
Interleave, duration : 40 ms (1.00 video frame)
Interleave, preload duratio : 500 ms

Скриншоты

[cybertorrent.net].t1727.torrent 
Торрент: Зарегистрирован [ 2019-04-04 15:32 ] · DD940E080D2AD61F83113B4331E59C37C79000AE

Скачать .torrent

Скачать

85 KB

Статус: проверено
Скачан: 0 раз
Размер: 16,46 GB
terms.php
Показать сообщения:    

Текущее время: 15-Ноя 18:27

Часовой пояс: UTC ± 0



Вы не можете начинать темы
Вы не можете отвечать на сообщения
Вы не можете редактировать свои сообщения
Вы не можете удалять свои сообщения
Вы не можете голосовать в опросах
Вы не можете прикреплять файлы к сообщениям
Вы можете скачивать файлы