Статистика раздачи
Размер:  1,36 GB   |    Зарегистрирован:  8 месяцев 11 дней   |    Скачан:  0 раз

Полного источника не было: Никогда

 
     
 
 

serzh ®

Пол:
Не указан
Стаж:
9 месяцев 2 дня
Сообщений:
384

Фантазм / Phantasm
«If you're looking for horror that's got balls...IT'S FOUND YOU»
Страна: США
Жанр: Ужасы
Год выпуска: 1979
Продолжительность: 01:29:10
Перевод: Авторский (одноголосый закадровый) Алексей Михалев
Субтитры: нет
Оригинальная аудиодорожка: английский
Режиссер: Дон Коскарелли / Don Coscarelli
В ролях: А. Майкл Болдуин, Билл Торнбери, Рэджи Бэннистер, Кэти Лестер, Терри Калбус, Кеннет
В. Джонс, Сьюзэн Харпер, Линн Истмэн, Дэвид Арнцен, Ральф Ричмонд
Описание: Подросток Майк становится свидетелем таинственных событий на городском кладбище
Монинсайд. Мрачный гробовщик — двухметровый Верзила — прямо из могил крадет свежие трупы
и творит с ними в глубине похоронного бюро нечто ужасное. Родители Майка погибли, старший
брат Джоди не верит ему — трудно принять всерьез рассказы мальчишки о злобных зомби-
карликах и летающих сферах-убийцах. Но вскоре Джоди и его другу мороженщику Рэджи придется
убедиться в том, как опасен Верзила и его твари.
Доп. информация: Дорожка с А. Михалевым синхронизирована и наложена ale_x2008 при помощи Sony Vegas и VirtualDubMod.
За предоставленную с ВК дорожку благодарим - яверь

Релиз
Сэмпл: https://yadi.sk/i/DIYrv0cJyBPupQ
Качество видео: BDRip
Формат видео: AVI
Видео: XviD build 73, 720x400 (1.80:1), 24 fps, 1747 kbps avg, 0.25 bit/pixel
Аудио: AC3 Dolby Digital, 48000Hz 2/0 (L,R) ch (mono), 192 kbps avg
Аудио 2: AC3 Dolby Digital, 48000Hz 2/0 (L,R) ch, 224 kbps avg

MediaInfo

Фантазм - Phantasm (by ale_x2008) fix.avi
Format : AVI
Format/Info : Audio Video Interleave
File size : 1.36 GiB
Duration : 1 h 29 min
Overall bit rate : 2 177 kb/s
Movie name : Фантазм - Phantasm (by ale_x2008)
Director : by ale_x2008
Writing application : VirtualDubMod 1.5.10.2 (build 2540/release)
Writing library : VirtualDubMod build 2540/release
Copyright : Edich2
Comment : RuTracker.org
Video
ID : 0
Format : MPEG-4 Visual
Format profile : Advanced Simple@L5
Format settings : BVOP2 / Custom Matrix
Format settings, BVOP : 2
Format settings, QPel : No
Format settings, GMC : No warppoints
Format settings, Matrix : Custom
Codec ID : XVID
Codec ID/Hint : XviD
Duration : 1 h 29 min
Bit rate : 1 747 kb/s
Width : 720 pixels
Height : 400 pixels
Display aspect ratio : 16:9
Frame rate : 24.000 FPS
Color space : YUV
Chroma subsampling : 4:2:0
Bit depth : 8 bits
Scan type : Progressive
Compression mode : Lossy
Bits/(Pixel*Frame) : 0.253
Stream size : 1.09 GiB (80%)
Writing library : XviD 73
Audio #1
ID : 1
Format : AC-3
Format/Info : Audio Coding 3
Codec ID : 2000
Duration : 1 h 29 min
Bit rate mode : Constant
Bit rate : 192 kb/s
Channel(s) : 2 channels
Channel positions : Front: L R
Sampling rate : 48.0 kHz
Frame rate : 31.250 FPS (1536 SPF)
Bit depth : 16 bits
Compression mode : Lossy
Stream size : 122 MiB (9%)
Alignment : Split accross interleaves
Interleave, duration : 42 ms (1.00 video frame)
Interleave, preload duratio : 500 ms
Service kind : Complete Main
Audio #2
ID : 2
Format : AC-3
Format/Info : Audio Coding 3
Codec ID : 2000
Duration : 1 h 29 min
Bit rate mode : Constant
Bit rate : 224 kb/s
Channel(s) : 2 channels
Channel positions : Front: L R
Sampling rate : 48.0 kHz
Frame rate : 31.250 FPS (1536 SPF)
Bit depth : 16 bits
Compression mode : Lossy
Stream size : 143 MiB (10%)
Alignment : Split accross interleaves
Interleave, duration : 42 ms (1.00 video frame)
Interleave, preload duratio : 500 ms
Service kind : Complete Main

Скриншоты


[cybertorrent.net].t1714.torrent 
Торрент: Зарегистрирован [ 2019-04-03 17:08 ] · E387E2A92910C02E3FF6016337841A033A61A49E

Скачать .torrent

Скачать

14 KB

Статус: проверено
Скачан: 0 раз
Размер: 1,36 GB
terms.php
Профиль [ЛС]
Показать сообщения:    

Текущее время: 14-Дек 22:27

Часовой пояс: UTC ± 0



Вы не можете начинать темы
Вы не можете отвечать на сообщения
Вы не можете редактировать свои сообщения
Вы не можете удалять свои сообщения
Вы не можете голосовать в опросах
Вы не можете прикреплять файлы к сообщениям
Вы можете скачивать файлы