serzh ®

Пол:
Не указан
Стаж:
1 год
Сообщений:
442

Безжалостные люди / Ruthless People
Страна: США
Жанр: комедия, криминал
Год выпуска: 1986
Продолжительность: 01:33:58
Перевод: Авторский (одноголосый закадровый) Алексей Михалев - ранний
Перевод 2: Авторский (одноголосый закадровый) Леонид Володарский
Перевод 3: Авторский (одноголосый закадровый) Сергей Визгунов
Перевод 4: Авторский (одноголосый закадровый) Алексей Михалев - средний (отдельно)
Перевод 5: Авторский (одноголосый закадровый) Алексей Михалев - поздний (отдельно)
Субтитры: нет
Режиссер: Джим Абрахамс / Jim Abrahams
В ролях: Дэнни ДеВито, Бетт Мидлер, Джадж Райнхолд, Хелен Слейтер, Анита Моррис, Билл Пуллман, Уильям Шиллинг, Арт Эванс, Кларенс Фелдер
Описание: Миллионер Сэм Стоун, доведенный до отчаяния своей несносной женой Барбарой, всерьез подумывает об ее убийстве, как единственном способе обрести свободу и счастливую жизнь. Он уже готов привести свой замысел в исполнение, но в намеченный для убийства день случается чудо: злобная Барбара пропадает из дома, а затем некто сообщает по телефону, что она похищена. Ей угрожает смерть, если «любящий» муж не заплатит огромный выкуп. Но обрадованный Сэм не спешит выкупать «обожаемую» супругу, и злоумышленники горько раскаиваются в содеянном, когда поближе узнают Барбару....

Сэмпл: http://multi-up.com/1228316
Качество видео: WEB-DLRip (Исходник WEB-DL 1080p)
Формат видео: AVI
Видео: XviD 73, 720x384, (1,85:1), 23,976 fps, 1658 Кбит/с, 8 бит, 0.25 bit/pixel
Аудио: Русский (АС3, 2 ch (Front: L R), 48,0 KHz, 192 Kbps) Алексей Михалев - ранний
Аудио 2: Русский (АС3, 2 ch (Front: L R), 48,0 KHz, 192 Kbps) Леонид Володарский
Аудио 3: Русский (АС3, 2 ch (Front: L R), 48,0 KHz, 192 Kbps) Сергей Визгунов
Аудио 4: Русский (АС3, 2 ch (Front: L R), 48,0 KHz, 192 Kbps) Алексей Михалев - средний (отдельно)
Аудио 5: Русский (АС3, 6 ch (Front: L C R, Side: L R, LFE), 48,0 KHz, 448 Kbps) Алексей Михалев - поздний (отдельно)

MediaInfo

Общее
Полное имя : D:\Фильмы на трекер\Новая папка\Безжалостные_люди_(комедия, криминал 1986 год)_Leonard_Lew.avi
Формат : AVI
Формат/Информация : Audio Video Interleave
Размер файла : 1,48 Гбайт
Продолжительность : 1 ч. 33 м.
Общий поток : 2253 Кбит/сек
Программа кодирования : VirtualDubMod 1.5.10.2 (build 2540/release)
Библиотека кодирования : VirtualDubMod build 2540/release
Видео
Идентификатор : 0
Формат : MPEG-4 Visual
Профиль формата : Advanced Simple@L5
Параметр BVOP формата : 2
Параметр QPel формата : Нет
Параметр GMC формата : Без точки перехода
Параметр матрицы формата : Выборочная
Идентификатор кодека : XVID
Идентификатор кодека/Подсказка : XviD
Продолжительность : 1 ч. 33 м.
Битрейт : 1658 Кбит/сек
Ширина : 720 пикселей
Высота : 384 пикселя
Соотношение сторон : 1,85:1
Частота кадров : 23,976 (23976/1000) кадра/сек
Цветовое пространство : YUV
Субдискретизация насыщенности : 4:2:0
Битовая глубина : 8 бит
Тип развёртки : Прогрессивная
Метод сжатия : С потерями
Бит/(Пиксели*Кадры) : 0.250
Размер потока : 1,09 Гбайт (74%)
Библиотека кодирования : XviD 73
Аудио #1
Идентификатор : 1
Формат : AC-3
Формат/Информация : Audio Coding 3
Расширение режима : CM (complete main)
Параметр Endianness формата : Big
Идентификатор кодека : 2000
Продолжительность : 1 ч. 33 м.
Вид битрейта : Постоянный
Битрейт : 192 Кбит/сек
Каналы : 2 канала
Расположение каналов : Front: L R
Частота : 48,0 КГц
Частота кадров : 31,250 кадров/сек (1536 spf)
Метод сжатия : С потерями
Размер потока : 129 Мбайт (9%)
Выравнивание : Разделение по промежуткам
Продолжительность промежутка : 42 мс. (1,00 видеокадр)
Время предзагрузки промежутка : 500 мс.
Аудио #2
Идентификатор : 2
Формат : AC-3
Формат/Информация : Audio Coding 3
Расширение режима : CM (complete main)
Параметр Endianness формата : Big
Идентификатор кодека : 2000
Продолжительность : 1 ч. 33 м.
Вид битрейта : Постоянный
Битрейт : 192 Кбит/сек
Каналы : 2 канала
Расположение каналов : Front: L R
Частота : 48,0 КГц
Частота кадров : 31,250 кадров/сек (1536 spf)
Метод сжатия : С потерями
Размер потока : 129 Мбайт (9%)
Выравнивание : Разделение по промежуткам
Продолжительность промежутка : 42 мс. (1,00 видеокадр)
Время предзагрузки промежутка : 500 мс.
Аудио #3
Идентификатор : 3
Формат : AC-3
Формат/Информация : Audio Coding 3
Расширение режима : CM (complete main)
Параметр Endianness формата : Big
Идентификатор кодека : 2000
Продолжительность : 1 ч. 33 м.
Вид битрейта : Постоянный
Битрейт : 192 Кбит/сек
Каналы : 2 канала
Расположение каналов : Front: L R
Частота : 48,0 КГц
Частота кадров : 31,250 кадров/сек (1536 spf)
Метод сжатия : С потерями
Размер потока : 129 Мбайт (9%)
Выравнивание : Разделение по промежуткам
Продолжительность промежутка : 42 мс. (1,00 видеокадр)
Время предзагрузки промежутка : 500 мс.

Скриншот c названием фильма

Скриншоты

Профиль [ЛС]
Показать сообщения:    

Текущее время: 30-Мар 07:27

Часовой пояс: UTC ± 0



Вы не можете начинать темы
Вы не можете отвечать на сообщения
Вы не можете редактировать свои сообщения
Вы не можете удалять свои сообщения
Вы не можете голосовать в опросах
Вы не можете прикреплять файлы к сообщениям
Вы не можете скачивать файлы