Статистика раздачи
Размер:  1,09 GB   |    Зарегистрирован:  8 месяцев 20 дней   |    Скачан:  0 раз

Полного источника не было: Никогда

 
     
 
 

Гость ®

Пол:
Не указан

ВОЛЯ ВСЕЛЕННОЙ Жанр: приключения, мелодрама, психологический
Год выпуска: 1988
Продолжительность: 01:06:14
Режиссёр: Дмитрий Михлеев
Производство: Беларусьфильм
Сценарий: Леонид Ризин
Оператор: Анатолий Калашников
Художник: Владимир Гавриков
Композитор: Эдуард Артемьев
В ролях:
Вячеслав Илющенко, Наталья Гусева, Андрей Бабошкин, Денис Германов, Игорь Жигалов, Сергей Савчук, Диана Красницкая, Александр Денисов, Виктор Ильичёв, Сергей Векслер, Валерия Богук, Е. Нестерович, Мария Виноградова, Александра Климова, Любовь Германова, Л. Булгаков, Иван Мацкевич, Александр Лабуш, Елена Одинцова
Описание:
СССР, конец 1980-х годов. Обычная советская школа, седьмой класс. Главный герой — Дима Коноплёв, семиклассник без каких-либо особых талантов, - влюблён в одноклассницу Лену Лукашевич. За всё лето Дима так и не смог написать домашнее сочинение на тему «Кем я хочу стать» — он не знает, кем хочет быть, и ждёт, полагая, что какой-то внутренний голос должен подсказать ему это. Дима очень серьёзно относится к судьбе и предсказаниям будущего. Может быть, отчасти тому виной одна из его бабушек, верящая в приметы и вещие сны. Интерес Димы подогревает и его одноклассник Марик Утёночкин (кстати, тоже явно неравнодушный к Лене). Он демонстрирует «чудеса йоги», рассуждает о предопределённости, судьбе, «воле Вселенной», предвидении и предсказаниях. Однажды Марик приносит в школу «Книгу Судьбы». С её помощью якобы можно узнать, в каком возрасте и по какой причине умрёт человек. Результат гадания для Димы оказывается неприятным — по расчётам, он должен погибнуть в аварии в ближайшее воскресенье...
Источник:
http://cybertorrent.ru/forum/viewtopic.php?t=4192346
Семпл:
https://yadi.sk/i/OL1GpX_RwJxJyw
Качество: SATRip
Контейнер: MKV
Видео: x264, 704x528, 25.000 fps, 2 162 kbps, 0. 233 bits/(pixel*frame)
Аудио: AC-3, 48.0 KHz, 2 channels (L R), CBR, 192 kbps

MediaInfo

General
Unique ID : 199380415004796693946072293024904662134 (0x95FF456A9FD8997CB0F80D7DB7D64C76)
Complete name : C:\VIDEO\Воля Вселенной (БеларусьТВ)\Volya Vselennoy (SATRip).mkv
Format : Matroska
Format version : Version 2
File size : 1.09 GiB
Duration : 1h 6mn
Overall bit rate : 2 356 Kbps
Encoded date : UTC 2018-12-27 09:03:12
Writing application : mkvmerge v7.8.0 ('River Man') 32bit built on Apr 3 2015 12:11:22
Writing library : libebml v1.3.1 + libmatroska v1.4.2
Video
ID : 1
Format : AVC
Format/Info : Advanced Video Codec
Format profile : High@L4.1
Format settings, CABAC : Yes
Format settings, ReFrames : 7 frames
Codec ID : V_MPEG4/ISO/AVC
Duration : 1h 6mn
Bit rate : 2 162 Kbps
Width : 704 pixels
Height : 528 pixels
Display aspect ratio : 4:3
Frame rate mode : Constant
Frame rate : 25.000 fps
Color space : YUV
Chroma subsampling : 4:2:0
Bit depth : 8 bits
Scan type : Progressive
Bits/(Pixel*Frame) : 0.233
Stream size : 1 003 MiB (90%)
Writing library : x264 core 146 r2538 121396c
Encoding settings : cabac=1 / ref=7 / deblock=1:-2:-1 / analyse=0x3:0x113 / me=umh / subme=10 / psy=1 / psy_rd=1.00:0.20 / mixed_ref=1 / me_range=24 / chroma_me=1 / trellis=2 / 8x8dct=1 / cqm=0 / deadzone=21,11 / fast_pskip=0 / chroma_qp_offset=-3 / threads=4 / lookahead_threads=1 / sliced_threads=0 / nr=0 / decimate=1 / interlaced=0 / bluray_compat=0 / constrained_intra=0 / bframes=8 / b_pyramid=2 / b_adapt=2 / b_bias=0 / direct=3 / weightb=1 / open_gop=0 / weightp=2 / keyint=250 / keyint_min=25 / scenecut=40 / intra_refresh=0 / rc_lookahead=60 / rc=2pass / mbtree=1 / bitrate=2162 / ratetol=1.0 / qcomp=0.60 / qpmin=0 / qpmax=69 / qpstep=4 / cplxblur=20.0 / qblur=0.5 / vbv_maxrate=50000 / vbv_bufsize=62500 / nal_hrd=none / filler=0 / ip_ratio=1.40 / aq=1:1.00
Default : Yes
Forced : No
Audio
ID : 2
Format : AC-3
Format/Info : Audio Coding 3
Mode extension : CM (complete main)
Format settings, Endianness : Big
Codec ID : A_AC3
Duration : 1h 6mn
Bit rate mode : Constant
Bit rate : 192 Kbps
Channel(s) : 2 channels
Channel positions : Front: L R
Sampling rate : 48.0 KHz
Bit depth : 16 bits
Compression mode : Lossy
Stream size : 91.0 MiB (8%)
Default : Yes
Forced : No
[cybertorrent.net].t171.torrent 
Торрент: Зарегистрирован [ 2019-03-18 10:04 ] · EF104D13F0B2862D1B27C93EBAF8DBCBC6DF6840

Скачать .torrent

Скачать

11 KB

Статус: проверено
Скачан: 0 раз
Размер: 1,09 GB
terms.php
Показать сообщения:    

Текущее время: 07-Дек 18:50

Часовой пояс: UTC ± 0



Вы не можете начинать темы
Вы не можете отвечать на сообщения
Вы не можете редактировать свои сообщения
Вы не можете удалять свои сообщения
Вы не можете голосовать в опросах
Вы не можете прикреплять файлы к сообщениям
Вы можете скачивать файлы