Статистика раздачи
Размер:  2,74 GB   |    Зарегистрирован:  6 месяцев 15 дней   |    Скачан:  0 раз

Полного источника не было: Никогда

   
 

Гость ®

Пол:
Не указан

Ещё до войны (2 серии)
Жанр: мелодрама, экранизация
Год выпуска: 1982
Продолжительность: 01:04:40 + 01:04:14
Режиссёр: Борис Савченко
В ролях: Дарья Михайлова, Андрей Ярославцев, Людмила Шевель, Ирина Жалыбина, Ольга Анохина, Юрий Гребенщиков, Василий Петренко, Элеонора Шашкова, Александр Гебдовский, Сергей Калантай, Владимир Петрив, Виктор Мирошниченко, Лилия Гурова, Николай Юдин, И. Аверьянова, Николай Федорцов, Александр Белина и другие
Описание: Тихо и мирно живет деревушка Улым. После службы в армии домой возвращается Анатолий Трифонов. Отец хочет, чтобы он срочно женился. В деревне много невест. Но из города приезжает племянница председателя, хрупкая и не похожая на других девушка Рая. Они полюбили друг друга. Однако жизнь распорядилась по-своему...
Доп. информация: Запись потока *.ts со спутника ABS-1, ремукс в *.mkv программой VideoReDo.
Качество видео: DVB
Формат видео: DVD Video
Видео: MPEG2 Video, 720(768)x576 (4:3), 25,000 кадров/сек, 2784 Кбит/сек
Аудио: MPEG Audio, 48,0 КГц, 128 Кбит/сек, 2 канала

MediaInfo

Общее
Полное имя : D:\Torrent\ЕЩЕ ДО ВОЙНЫ\VIDEO_TS\VIDEO_TS.BUP
Формат : DVD Video
Профиль формата : Menu
Размер файла : 12,0 Кбайт
Режим общего битрейта : Переменный
FileExtension_Invalid : ifo
Видео
Идентификатор : 224 (0xE0)
Формат : MPEG Video
Версия формата : Version 2
Вид битрейта : Переменный
Ширина : 720 пикселей
Высота : 576 пикселей
Соотношение сторон : 4:3
Частота кадров : 25,000 кадров/сек
Стандарт вещания : PAL
Метод сжатия : С потерями
Общее
Полное имя : D:\Torrent\ЕЩЕ ДО ВОЙНЫ\VIDEO_TS\VIDEO_TS.IFO
Формат : DVD Video
Профиль формата : Menu
Размер файла : 12,0 Кбайт
Режим общего битрейта : Переменный
Видео
Идентификатор : 224 (0xE0)
Формат : MPEG Video
Версия формата : Version 2
Вид битрейта : Переменный
Ширина : 720 пикселей
Высота : 576 пикселей
Соотношение сторон : 4:3
Частота кадров : 25,000 кадров/сек
Стандарт вещания : PAL
Метод сжатия : С потерями
Общее
Полное имя : D:\Torrent\ЕЩЕ ДО ВОЙНЫ\VIDEO_TS\VIDEO_TS.VOB
Формат : MPEG-PS
Размер файла : 48,0 Кбайт
Продолжительность : 40 мс.
Режим общего битрейта : Переменный
Общий поток : 9830 Кбит/сек
Видео
Идентификатор : 224 (0xE0)
Формат : MPEG Video
Версия формата : Version 2
Профиль формата : Main@Main
Параметр BVOP формата : Нет
Параметр матрицы формата : По умолчанию
Продолжительность : 40 мс.
Вид битрейта : Переменный
Максимальный битрейт : 9000 Кбит/сек
Ширина : 720 пикселей
Высота : 576 пикселей
Соотношение сторон : 4:3
Частота кадров : 25,000 кадров/сек
Стандарт вещания : PAL
Цветовое пространство : YUV
Субдискретизация насыщенности : 4:2:0
Битовая глубина : 8 бит
Тип развёртки : Прогрессивная
Порядок развёртки : Верхнее поле первое
Метод сжатия : С потерями
Временной код первого кадра : 00:00:00:00
Оригинал временного кода : Group of pictures header
Основные цвета : BT.601 PAL
Характеристики трансфера : BT.470 System B, BT.470 System G
Коэффициенты матрицы : BT.601
Меню
Общее
Полное имя : D:\Torrent\ЕЩЕ ДО ВОЙНЫ\VIDEO_TS\VTS_01_0.BUP
Формат : DVD Video
Профиль формата : Program
Размер файла : 68,0 Кбайт
Продолжительность : 2 ч. 8 м.
Режим общего битрейта : Переменный
Общий поток : 72 бит/сек
FileExtension_Invalid : ifo
Видео
Идентификатор : 224 (0xE0)
Формат : MPEG Video
Версия формата : Version 2
Продолжительность : 2 ч. 8 м.
Вид битрейта : Переменный
Ширина : 720 пикселей
Высота : 576 пикселей
Соотношение сторон : 4:3
Частота кадров : 25,000 кадров/сек
Стандарт вещания : PAL
Метод сжатия : С потерями
Аудио
Идентификатор : 0 (0x0)
Формат : MPEG Audio
Профиль формата : Version 1
Продолжительность : 2 ч. 8 м.
Каналы : 2 канала
Частота : 48,0 КГц
Метод сжатия : С потерями
Язык : English
Меню
Продолжительность : 2 ч. 8 м.
00:00:00.000 : Chapter 1
00:06:10.560 : Chapter 2
00:12:19.640 : Chapter 3
00:18:28.000 : Chapter 4
00:24:35.400 : Chapter 5
00:30:48.480 : Chapter 6
00:36:53.400 : Chapter 7
00:43:12.160 : Chapter 8
00:49:11.600 : Chapter 9
00:55:23.800 : Chapter 10
01:01:27.920 : Chapter 11
01:04:43.400 : Chapter 12
01:13:45.760 : Chapter 13
01:23:40.240 : Chapter 14
01:25:59.080 : Chapter 15
01:32:38.720 : Chapter 16
01:38:14.320 : Chapter 17
01:44:24.920 : Chapter 18
01:50:37.520 : Chapter 19
01:56:40.600 : Chapter 20
02:02:52.080 : Chapter 21
List (Audio) : 0
Общее
Полное имя : D:\Torrent\ЕЩЕ ДО ВОЙНЫ\VIDEO_TS\VTS_01_0.IFO
Формат : DVD Video
Профиль формата : Program
Размер файла : 68,0 Кбайт
Продолжительность : 2 ч. 8 м.
Режим общего битрейта : Переменный
Общий поток : 72 бит/сек
Видео
Идентификатор : 224 (0xE0)
Формат : MPEG Video
Версия формата : Version 2
Продолжительность : 2 ч. 8 м.
Вид битрейта : Переменный
Ширина : 720 пикселей
Высота : 576 пикселей
Соотношение сторон : 4:3
Частота кадров : 25,000 кадров/сек
Стандарт вещания : PAL
Метод сжатия : С потерями
Аудио
Идентификатор : 0 (0x0)
Формат : MPEG Audio
Профиль формата : Version 1
Продолжительность : 2 ч. 8 м.
Каналы : 2 канала
Частота : 48,0 КГц
Метод сжатия : С потерями
Язык : English
Меню
Продолжительность : 2 ч. 8 м.
00:00:00.000 : Chapter 1
00:06:10.560 : Chapter 2
00:12:19.640 : Chapter 3
00:18:28.000 : Chapter 4
00:24:35.400 : Chapter 5
00:30:48.480 : Chapter 6
00:36:53.400 : Chapter 7
00:43:12.160 : Chapter 8
00:49:11.600 : Chapter 9
00:55:23.800 : Chapter 10
01:01:27.920 : Chapter 11
01:04:43.400 : Chapter 12
01:13:45.760 : Chapter 13
01:23:40.240 : Chapter 14
01:25:59.080 : Chapter 15
01:32:38.720 : Chapter 16
01:38:14.320 : Chapter 17
01:44:24.920 : Chapter 18
01:50:37.520 : Chapter 19
01:56:40.600 : Chapter 20
02:02:52.080 : Chapter 21
List (Audio) : 0
Общее
Полное имя : D:\Torrent\ЕЩЕ ДО ВОЙНЫ\VIDEO_TS\VTS_01_1.VOB
Формат : MPEG-PS
Размер файла : 1000 Мбайт
Продолжительность : 45 м. 58 с.
Режим общего битрейта : Переменный
Общий поток : 3041 Кбит/сек
Видео
Идентификатор : 224 (0xE0)
Формат : MPEG Video
Версия формата : Version 2
Профиль формата : Main@Main
Параметр BVOP формата : Да
Параметр матрицы формата : Выборочная
Параметр GOP формата : Variable
Структура изображения : Frame
Продолжительность : 45 м. 58 с.
Вид битрейта : Переменный
Битрейт : 2880 Кбит/сек
Ширина : 720 пикселей
Высота : 576 пикселей
Соотношение сторон : 4:3
Частота кадров : 25,000 кадров/сек
Стандарт вещания : PAL
Цветовое пространство : YUV
Субдискретизация насыщенности : 4:2:0
Битовая глубина : 8 бит
Тип развёртки : Чересстрочная
Порядок развёртки : Верхнее поле первое
Метод сжатия : С потерями
Бит/(Пиксели*Кадры) : 0.278
Временной код первого кадра : 00:00:00:00
Оригинал временного кода : Group of pictures header
GOP, открыто/закрыто : Открыто
Размер потока : 938 Мбайт (94%)
Аудио
Идентификатор : 192 (0xC0)
Формат : MPEG Audio
Версия формата : Version 1
Профиль формата : Layer 2
Продолжительность : 45 м. 58 с.
Вид битрейта : Постоянный
Битрейт : 128 Кбит/сек
Каналы : 2 канала
Частота : 48,0 КГц
Метод сжатия : С потерями
Размер потока : 42,1 Мбайт (4%)
Меню
Общее
Полное имя : D:\Torrent\ЕЩЕ ДО ВОЙНЫ\VIDEO_TS\VTS_01_2.VOB
Формат : MPEG-PS
Размер файла : 1000 Мбайт
Продолжительность : 45 м. 58 с.
Режим общего битрейта : Переменный
Общий поток : 3041 Кбит/сек
Видео
Идентификатор : 224 (0xE0)
Формат : MPEG Video
Версия формата : Version 2
Профиль формата : Main@Main
Параметр BVOP формата : Да
Параметр матрицы формата : Выборочная
Параметр GOP формата : Variable
Структура изображения : Frame
Продолжительность : 45 м. 58 с.
Вид битрейта : Переменный
Битрейт : 2880 Кбит/сек
Ширина : 720 пикселей
Высота : 576 пикселей
Соотношение сторон : 4:3
Частота кадров : 25,000 кадров/сек
Стандарт вещания : PAL
Цветовое пространство : YUV
Субдискретизация насыщенности : 4:2:0
Битовая глубина : 8 бит
Тип развёртки : Чересстрочная
Порядок развёртки : Верхнее поле первое
Метод сжатия : С потерями
Бит/(Пиксели*Кадры) : 0.278
Временной код первого кадра : 00:45:58:11
Оригинал временного кода : Group of pictures header
GOP, открыто/закрыто : Открыто
Размер потока : 938 Мбайт (94%)
Аудио
Идентификатор : 192 (0xC0)
Формат : MPEG Audio
Версия формата : Version 1
Профиль формата : Layer 2
Продолжительность : 45 м. 58 с.
Вид битрейта : Постоянный
Битрейт : 128 Кбит/сек
Каналы : 2 канала
Частота : 48,0 КГц
Метод сжатия : С потерями
Задержка видео : -200 мс.
Размер потока : 42,1 Мбайт (4%)
Меню
Общее
Полное имя : D:\Torrent\ЕЩЕ ДО ВОЙНЫ\VIDEO_TS\VTS_01_3.VOB
Формат : MPEG-PS
Размер файла : 804 Мбайт
Продолжительность : 36 м. 56 с.
Режим общего битрейта : Переменный
Общий поток : 3041 Кбит/сек
Видео
Идентификатор : 224 (0xE0)
Формат : MPEG Video
Версия формата : Version 2
Профиль формата : Main@Main
Параметр BVOP формата : Да
Параметр матрицы формата : Выборочная
Параметр GOP формата : Variable
Структура изображения : Frame
Продолжительность : 36 м. 56 с.
Вид битрейта : Переменный
Битрейт : 2880 Кбит/сек
Ширина : 720 пикселей
Высота : 576 пикселей
Соотношение сторон : 4:3
Частота кадров : 25,000 кадров/сек
Стандарт вещания : PAL
Цветовое пространство : YUV
Субдискретизация насыщенности : 4:2:0
Битовая глубина : 8 бит
Тип развёртки : Чересстрочная
Порядок развёртки : Верхнее поле первое
Метод сжатия : С потерями
Бит/(Пиксели*Кадры) : 0.278
Временной код первого кадра : 01:31:57:02
Оригинал временного кода : Group of pictures header
GOP, открыто/закрыто : Открыто
Размер потока : 754 Мбайт (94%)
Аудио
Идентификатор : 192 (0xC0)
Формат : MPEG Audio
Версия формата : Version 1
Профиль формата : Layer 2
Продолжительность : 36 м. 56 с.
Вид битрейта : Постоянный
Битрейт : 128 Кбит/сек
Каналы : 2 канала
Частота : 48,0 КГц
Метод сжатия : С потерями
Задержка видео : -160 мс.
Размер потока : 33,8 Мбайт (4%)
Меню
[cybertorrent.net].t1674.torrent 
Торрент: Зарегистрирован [ 2019-04-01 16:16 ] · F3C85DA4AD7008BDADD8B5092CA3C57CDAB3DEBF

Скачать .torrent

Скачать

15 KB

Статус: проверено
Скачан: 0 раз
Размер: 2,74 GB
terms.php
Показать сообщения:    

Текущее время: 17-Окт 05:04

Часовой пояс: UTC ± 0



Вы не можете начинать темы
Вы не можете отвечать на сообщения
Вы не можете редактировать свои сообщения
Вы не можете удалять свои сообщения
Вы не можете голосовать в опросах
Вы не можете прикреплять файлы к сообщениям
Вы можете скачивать файлы