Статистика раздачи
Размер:  1,66 GB   |    Зарегистрирован:  7 месяцев 16 дней   |    Скачан:  0 раз

Полного источника не было: Никогда

 
     
 
 

Гость ®

Пол:
Не указан

Акт | Притворство | The Act- Год выпуска: 2019
Страна: США
Жанр: ужасы, драма, криминал
Продолжительность: ~ 00:53:00
Перевод: Любительский (многоголосый закадровый) TVShows--Режиссёр: Лор де Клермон-Тоннер, Стивен Пит, Адам Аркин
В ролях: Патриша Аркетт, Джои Кинг, Хлоя Севиньи, Анна-София Робб, Кэлам Уорси, Джинни Камерон, Стив Култер и др.-Описание: В центре сюжета совсем юная девушка по имени Джипси Бланшар, которая пыталась избавиться от слишком заботливой и навязчивой матери. Ее отчаянное стремление к независимости постепенно открывает ящик Пандоры, наполненный мрачными тайнами с виду этой благополучной семьи. Джипси была веселой, общительной и доброй девочкой, несмотря на то, что была прикована к инвалидной коляске. Ее внимательная и харизматичная мама Ди-Ди всегда была рядом с ней. Но когда в ее дочери стала просыпаться подростковая сексуальность, она решает восстать против чрезмерной материнской опеки. В конечном итоге сложившаяся ситуация между матерью и дочерью приводит к ...--
Качество: WEB-DLRip
Формат: AVI
Видео: XVID, 720x304, 23.976 fps, ~2000 kbps avg, ~0.38 bit/pixel
Аудио Rus: AC3, 48.0 KHz, 2 channels, 192 kbps
Субтитры: нет
Реклама отсутствует
Все раздачи сериала

MediaInfo

General
Complete name : G:\Акт (Сезон 1) TVShows\The.Act.S01E01.WEB-DLRip.RGzsRutracker.Celta88.avi
Format : AVI
Format/Info : Audio Video Interleave
File size : 837 MiB
Duration : 53 min 7 s
Overall bit rate : 2 203 kb/s
Writing application : VirtualDubMod 1.5.10.3 | www.virtualdub-fr.org || (build 2550/release)
Writing library : VirtualDubMod build 2550/release
Video
ID : 0
Format : MPEG-4 Visual
Format profile : Advanced Simple@L5
Format settings, BVOP : 1
Format settings, QPel : No
Format settings, GMC : No warppoints
Format settings, Matrix : Custom
Codec ID : XVID
Codec ID/Hint : XviD
Duration : 53 min 7 s
Bit rate : 2 001 kb/s
Width : 720 pixels
Height : 304 pixels
Display aspect ratio : 2.35:1
Frame rate : 23.976 (24000/1001) FPS
Color space : YUV
Chroma subsampling : 4:2:0
Bit depth : 8 bits
Scan type : Progressive
Compression mode : Lossy
Bits/(Pixel*Frame) : 0.381
Stream size : 761 MiB (91%)
Writing library : XviD 73
Audio
ID : 1
Format : AC-3
Format/Info : Audio Coding 3
Mode extension : CM (complete main)
Format settings, Endianness : Big
Codec ID : 2000
Duration : 53 min 7 s
Bit rate mode : Constant
Bit rate : 192 kb/s
Channel(s) : 2 channels
Channel positions : Front: L R
Sampling rate : 48.0 kHz
Frame rate : 31.250 FPS (1536 spf)
Bit depth : 16 bits
Compression mode : Lossy
Stream size : 73.0 MiB (9%)
Alignment : Split accross interleaves
Interleave, duration : 42 ms (1.00 video frame)
Interleave, preload duratio : 500 ms

Скриншоты

Внимание! Раздача ведётся путём добавления новых серий!

Внимание! Раздача ведётся путём добавления новых серий; при каждом добавлении создаётся новый торрент.
Чтобы начать докачку новой серии, пользователям необходимо сделать следующее:

1. Остановить скачивание.
2. Удалить старый торрент у себя из клиента (старые серии удалять не надо).
3. Скачать новый торрент и запустить его у себя в клиенте вместо старого, при этом указать клиенту путь в старую папку куда и должно происходить скачивание новых серий.

Ваш клиент при этом должен произвести хеширование (проверку) старой папки (если не производит сам - помогите ему сделать это), и будет докачивать только те серии которых у вас ещё нет. Старые серии при этом не удаляются, а продолжают раздаваться!
Eсли вы уже удалили старые серии, то предотвратить повторную закачку старых серий можно, отжав галочку в соответствующих местах при запуске нового торрента.
Релиз группы:
[cybertorrent.net].t1673.torrent 
Торрент: Зарегистрирован [ 2019-04-01 16:16 ] · E661CDAB8CA96387492E5412DFE2C29FA3226D91

Скачать .torrent

Скачать

17 KB

Статус: проверено
Скачан: 0 раз
Размер: 1,66 GB
terms.php
Показать сообщения:    

Текущее время: 17-Ноя 17:21

Часовой пояс: UTC ± 0



Вы не можете начинать темы
Вы не можете отвечать на сообщения
Вы не можете редактировать свои сообщения
Вы не можете удалять свои сообщения
Вы не можете голосовать в опросах
Вы не можете прикреплять файлы к сообщениям
Вы можете скачивать файлы