Статистика раздачи
Размер:  1,49 GB   |    Зарегистрирован:  7 месяцев 11 дней   |    Скачан:  0 раз

Полного источника не было: Никогда

 
     
 
 

Гость ®

Пол:
Не указан

МатьОтецСын | MotherFatherSon- Год выпуска: 2019
Страна: Великобритания
Жанр: Триллер
Продолжительность: ~01:00:00-Перевод: Профессиональный (многоголосый закадровый) | NovaMedia-Режиссёр: Джеймс Кент, Чарльз Стёрридж-В ролях: Ричард Гир, Билли Хоул, Хелен Маккрори, Елена Анайя, Нил Бигли, Киран Хайндс, Хью О’Брайэн, Хезер Пирс, Ниам Алгар, Питер Салливан-Описание: Сюжет повествует о могущественной семье, переживающей сложные времена. Главный герой — успешный американский магнат Макс, главный инструмент влияния которого — информация и секреты могущественных людей. Его бизнес-империя оказывается под угрозой, причем опасность исходит от его родного сына Кейдена. Сын справляется со своими комплексами и давлением завышенных ожиданий отца, забываясь с помощью наркотиков и беспорядочных связей. В борьбу с отцом за влияние на сына вступает также его мать — Кэтрин. Пока Макс и Кэтрин борются за душу своего сына, начинается еще одна битва, борьба за сердце нации.- -[box=#aed8ff,#003465]Ссылка на предыдущие и альтернативные раздачи[/box]-Качество: HDTVRip
Формат: AVI
Видео: XviD, 704x352 (2,000), 25,000 кадров/сек, ~1600 Кбит/сек
Аудио: AC3, 48,0 kHz, 2 ch, 192 Кбит/сек | NovaMedia
Субтитры: Отсутствуют
Реклама: Отсутствует-

MediaInfo

Общее
Полное имя : E:\MotherFatherSon.S01E01.HDTVRip.RGzsRutracker.[Wentworth_Miller].avi
Формат : AVI
Формат/Информация : Audio Video Interleave
Размер файла : 763 Мбайт
Продолжительность : 59 м. 13 с.
Общий поток : 1802 Кбит/сек
Название фильма : MotherFatherSon (2019) - Release for RGzsRutracker
Режиссёр : Wentworth_Miller
Жанр : Thriller
Программа кодирования : VirtualDubMod 1.5.10.3 | www.virtualdub-fr.org || (build 2550/release)
Формат оригинала/Имя : TV-Serie
Видео
Идентификатор : 0
Формат : MPEG-4 Visual
Профиль формата : Advanced Simple@L5
Настройки формата : BVOP1
Параметр BVOP формата : 1
Параметр QPel формата : Нет
Параметр GMC формата : Без точки перехода
Параметр матрицы формата : Default (MPEG)
Идентификатор кодека : XVID
Идентификатор кодека/Подсказка : XviD
Продолжительность : 59 м. 13 с.
Битрейт : 1600 Кбит/сек
Ширина : 704 пикселя
Высота : 352 пикселя
Соотношение сторон : 2,000
Частота кадров : 25,000 кадров/сек
Цветовое пространство : YUV
Субдискретизация насыщенности : 4:2:0
Битовая глубина : 8 бит
Тип развёртки : Прогрессивная
Метод сжатия : С потерями
Бит/(Пиксели*Кадры) : 0.258
Размер потока : 678 Мбайт (89%)
Библиотека кодирования : XviD 67
Аудио
Идентификатор : 1
Формат : AC-3
Формат/Информация : Audio Coding 3
Коммерческое название : Dolby Digital
Идентификатор кодека : 2000
Продолжительность : 59 м. 13 с.
Вид битрейта : Постоянный
Битрейт : 192 Кбит/сек
Каналы : 2 канала
Channel layout : L R
Частота : 48,0 КГц
Частота кадров : 31,250 кадров/сек (1536 SPF)
Битовая глубина : 16 бит
Метод сжатия : С потерями
Размер потока : 81,3 Мбайт (11%)
Выравнивание : Разделение по промежуткам
Продолжительность промежутка : 40 мс. (1,00 видеокадр)
Время предзагрузки промежутка : 500 мс.
ServiceKind/String : Complete Main
-

Скриншоты

-

Внимание! Раздача ведётся путём добавления новых серий

Внимание! Раздача ведётся путём добавления новых серий; при каждом добавлении создаётся новый торрент. Чтобы начать докачку новой серии, пользователям необходимо сделать следующее:
(1) остановить скачивание,
(2) удалить старый торрент у себя из клиента (старые серии удалять не надо),
(3) скачать новый торрент и запустить его у себя в клиенте вместо старого, при этом указать клиенту путь в старую папку куда и должно происходить скачивание новых серий.
Ваш клиент при этом должен произвести хеширование (проверку) старой папки (если не производит сам - помогите ему сделать это), и будет докачивать только те серии которых у вас ещё нет. Старые серии при этом не удаляются, а продолжают раздаваться!
Eсли вы уже удалили старые серии, то предотвратить повторную закачку старых серий можно, отжав галочку в соответствующих местах при запуске нового торрента. По возможности, желательно не удалять старые серии как можно дольше чтобы релизёр не столько продолжал раздавать старые серии, а смог сконцентрироваться на новых.
-Релиз группы:
[cybertorrent.net].t1672.torrent 
Торрент: Зарегистрирован [ 2019-04-01 16:16 ] · 6FCE078C1136F257B3DFFE0F03E2FE09BDF7ACCE

Скачать .torrent

Скачать

16 KB

Статус: проверено
Скачан: 0 раз
Размер: 1,49 GB
terms.php
Показать сообщения:    

Текущее время: 13-Ноя 00:05

Часовой пояс: UTC ± 0



Вы не можете начинать темы
Вы не можете отвечать на сообщения
Вы не можете редактировать свои сообщения
Вы не можете удалять свои сообщения
Вы не можете голосовать в опросах
Вы не можете прикреплять файлы к сообщениям
Вы можете скачивать файлы