Статистика раздачи
Размер:  2,67 GB   |    Зарегистрирован:  7 месяцев 12 дней   |    Скачан:  0 раз

Полного источника не было: Никогда

 
     
 
 

Гость ®

Пол:
Не указан

Ещё до войны (2 серии)
24.03.19 торрент обновлен, заменил файлы на запись ночной трансляции, каковая шла без рекламы
Жанр: мелодрама, экранизация
Год выпуска: 1982
Продолжительность: 01:04:40 + 01:04:14
Режиссёр: Борис Савченко
В ролях: Дарья Михайлова, Андрей Ярославцев, Людмила Шевель, Ирина Жалыбина, Ольга Анохина, Юрий Гребенщиков, Василий Петренко, Элеонора Шашкова, Александр Гебдовский, Сергей Калантай, Владимир Петрив, Виктор Мирошниченко, Лилия Гурова, Николай Юдин, И. Аверьянова, Николай Федорцов, Александр Белина и другие
Описание: Тихо и мирно живет деревушка Улым. После службы в армии домой возвращается Анатолий Трифонов. Отец хочет, чтобы он срочно женился. В деревне много невест. Но из города приезжает племянница председателя, хрупкая и не похожая на других девушка Рая. Они полюбили друг друга. Однако жизнь распорядилась по-своему...
Доп. информация: Запись потока *.ts со спутника ABS-1, ремукс в *.mkv программой VideoReDo.
Качество видео: DVB
Формат видео: MKV
Видео: MPEG2 Video, 720(768)x576 (4:3), 25,000 кадров/сек, 2784 Кбит/сек
Аудио: MPEG Audio, 48,0 КГц, 128 Кбит/сек, 2 канала

MediaInfo

Общее
Уникальный идентификатор : 231787706787151196977971610885013341328 (0xAE60B0431F994C227992CCADB3438490)
Полное имя : D:\Torrent\ЕЩЕ ДО ВОЙНЫ\ЕЩЁ ДО ВОЙНЫ 1 (RETRO).mkv
Формат : Matroska
Версия формата : Version 2
Размер файла : 1,34 Гбайт
Продолжительность : 1 ч. 4 м.
Режим общего битрейта : Переменный
Общий поток : 2971 Кбит/сек
Программа кодирования : Lavf52.64.2
Библиотека кодирования : Lavf52.64.2
Видео
Идентификатор : 1
Формат : MPEG Video
Версия формата : Version 2
Профиль формата : Main@Main
Параметр BVOP формата : Да
Параметр матрицы формата : Выборочная
Параметр GOP формата : Variable
Структура изображения : Frame
Идентификатор кодека : V_MPEG2
Идентификатор кодека/Информация : MPEG 1 or 2 Video
Продолжительность : 1 ч. 4 м.
Вид битрейта : Переменный
Битрейт : 2784 Кбит/сек
Максимальный битрейт : 2880 Кбит/сек
Ширина : 720 пикселей
Высота : 576 пикселей
Соотношение сторон : 4:3
Соотношение сторон в оригинале : 4:3
Режим частоты кадров : Постоянный
Частота кадров : 25,000 кадров/сек
Стандарт вещания : PAL
Цветовое пространство : YUV
Субдискретизация насыщенности : 4:2:0
Битовая глубина : 8 бит
Тип развёртки : Чересстрочная
Порядок развёртки : Верхнее поле первое
Метод сжатия : С потерями
Бит/(Пиксели*Кадры) : 0.268
Временной код первого кадра : 00:00:00:00
Оригинал временного кода : Group of pictures header
GOP, открыто/закрыто : Открыто
Размер потока : 1,26 Гбайт (94%)
Default : Да
Forced : Нет
Аудио
Идентификатор : 2
Формат : MPEG Audio
Версия формата : Version 1
Профиль формата : Layer 2
Идентификатор кодека : A_MPEG/L2
Идентификатор кодека/Подсказка : MP2
Продолжительность : 1 ч. 4 м.
Вид битрейта : Постоянный
Битрейт : 128 Кбит/сек
Каналы : 2 канала
Частота : 48,0 КГц
Метод сжатия : С потерями
Задержка видео : 7 мс.
Размер потока : 59,2 Мбайт (4%)
Язык : Russian
Default : Да
Forced : Нет
Общее
Уникальный идентификатор : 233826652202960135707046433481731326185 (0xAFE96008589452B3D51F4C1AEFD3C0E9)
Полное имя : D:\Torrent\ЕЩЕ ДО ВОЙНЫ\ЕЩЁ ДО ВОЙНЫ 2 (RETRO).mkv
Формат : Matroska
Версия формата : Version 2
Размер файла : 1,33 Гбайт
Продолжительность : 1 ч. 4 м.
Режим общего битрейта : Переменный
Общий поток : 2971 Кбит/сек
Программа кодирования : Lavf52.64.2
Библиотека кодирования : Lavf52.64.2
Видео
Идентификатор : 1
Формат : MPEG Video
Версия формата : Version 2
Профиль формата : Main@Main
Параметр BVOP формата : Да
Параметр матрицы формата : Выборочная
Параметр GOP формата : Variable
Структура изображения : Frame
Идентификатор кодека : V_MPEG2
Идентификатор кодека/Информация : MPEG 1 or 2 Video
Продолжительность : 1 ч. 4 м.
Вид битрейта : Переменный
Битрейт : 2784 Кбит/сек
Максимальный битрейт : 2880 Кбит/сек
Ширина : 720 пикселей
Высота : 576 пикселей
Соотношение сторон : 4:3
Соотношение сторон в оригинале : 4:3
Режим частоты кадров : Постоянный
Частота кадров : 25,000 кадров/сек
Стандарт вещания : PAL
Цветовое пространство : YUV
Субдискретизация насыщенности : 4:2:0
Битовая глубина : 8 бит
Тип развёртки : Чересстрочная
Порядок развёртки : Верхнее поле первое
Метод сжатия : С потерями
Бит/(Пиксели*Кадры) : 0.268
Временной код первого кадра : 00:00:00:00
Оригинал временного кода : Group of pictures header
GOP, открыто/закрыто : Открыто
Размер потока : 1,25 Гбайт (94%)
Default : Да
Forced : Нет
Аудио
Идентификатор : 2
Формат : MPEG Audio
Версия формата : Version 1
Профиль формата : Layer 2
Идентификатор кодека : A_MPEG/L2
Идентификатор кодека/Подсказка : MP2
Продолжительность : 1 ч. 4 м.
Вид битрейта : Постоянный
Битрейт : 128 Кбит/сек
Каналы : 2 канала
Частота : 48,0 КГц
Метод сжатия : С потерями
Задержка видео : 23 мс.
Размер потока : 58,8 Мбайт (4%)
Язык : Russian
Default : Да
Forced : Нет
[cybertorrent.net].t1665.torrent 
Торрент: Зарегистрирован [ 2019-04-01 16:16 ] · 6B0BDDE3CDB3E0D54003D33A434214859CB6E973

Скачать .torrent

Скачать

14 KB

Статус: проверено
Скачан: 0 раз
Размер: 2,67 GB
terms.php
Показать сообщения:    

Текущее время: 13-Ноя 17:54

Часовой пояс: UTC ± 0



Вы не можете начинать темы
Вы не можете отвечать на сообщения
Вы не можете редактировать свои сообщения
Вы не можете удалять свои сообщения
Вы не можете голосовать в опросах
Вы не можете прикреплять файлы к сообщениям
Вы можете скачивать файлы