Статистика раздачи
Размер:  746 MB   |    Зарегистрирован:  6 месяцев 16 дней   |    Скачан:  0 раз

Полного источника не было: Никогда

   
 

солнышко ®

Пол:
Не указан
Стаж:
7 месяцев 4 дня
Сообщений:
565

Сможете ли вы меня простить? / Can you ever forgive me?
Страна: США
Жанр: драма, комедия, биография, криминал
Год выпуска: 2018
Продолжительность: 01:46:22-Перевод : Профессиональный (многоголосый закадровый) | iTunes
Субтитры: русские (форс.)
Оригинальная аудиодорожка: нет-Режиссер: Мариэль Хеллер / Marielle Heller-В ролях: Мелисса Маккарти, Ричард Грант, Долли Уэллс, Бен Фэлкоун, Григорий Коростышевский, Джейн Куртин, Стивен Спинелла, Кристиан Наварро, Пан Банду, Эрик Ларей Харви-Описание: Писательница-неудачница Ли Израэль на пороге отчаяния начинает подделывать письма покойных знаменитостей, чтобы хоть как-то свести концы с концами.- -Качество видео: BDRip | Can.You.Ever.Forgive.Me.2018.BDREMUX.1080p.seleZen
Формат видео: AVI
Видео : 688x288 (2.39:1), 23.976 fps, XviD build 73 ~842 kbps avg, 0.18 bit/pixel
Аудио : 48 kHz, MPEG Layer 3, 2 ch, ~128.00 kbps avg-[box]Сэмпл[/box]-

MediaInfo

Код:Формат : AVI
Формат/Информация : Audio Video Interleave
Размер файла : 746 Мбайт
Продолжительность : 1 ч. 46 м.
Общий поток : 980 Кбит/сек
Программа кодирования : VirtualDubMod 1.5.10.3 | www.virtualdub-fr.org || (build 2550/release)
Библиотека кодирования : VirtualDubMod build 2550/release
Видео
Идентификатор : 0
Формат : MPEG-4 Visual
Профиль формата : Advanced Simple@L5
Настройки формата : BVOP1 / Custom Matrix
Параметр BVOP формата : 1
Параметр QPel формата : Нет
Параметр GMC формата : Без точки перехода
Параметр матрицы формата : Выборочная
Идентификатор кодека : XVID
Идентификатор кодека/Подсказка : XviD
Продолжительность : 1 ч. 46 м.
Битрейт : 843 Кбит/сек
Ширина : 688 пикселей
Высота : 288 пикселей
Соотношение сторон : 2,40:1
Частота кадров : 23,976 (24000/1001) кадра/сек
Цветовое пространство : YUV
Субдискретизация насыщенности : 4:2:0
Битовая глубина : 8 бит
Тип развёртки : Прогрессивная
Метод сжатия : С потерями
Бит/(Пиксели*Кадры) : 0.177
Размер потока : 641 Мбайт (86%)
Библиотека кодирования : XviD 73
Аудио
Идентификатор : 1
Формат : MPEG Audio
Версия формата : Version 1
Профиль формата : Layer 3
Идентификатор кодека : 55
Идентификатор кодека/Подсказка : MP3
Продолжительность : 1 ч. 46 м.
Вид битрейта : Постоянный
Битрейт : 128 Кбит/сек
Каналы : 2 канала
Частота : 48,0 КГц
Частота кадров : 41,667 кадра/сек (1152 SPF)
Метод сжатия : С потерями
Размер потока : 97,4 Мбайт (13%)
Выравнивание : Соединение по промежуткам
Продолжительность промежутка : 42 мс. (1,00 видеокадр)
Время предзагрузки промежутка : 504 мс.
Библиотека кодирования : LAME3.99r
Настройки программы : -m s -V 4 -q 2 -lowpass 17 -b 128

Скриншоты


[cybertorrent.net].t1658.torrent 
Торрент: Зарегистрирован [ 2019-03-31 15:52 ] · 95F3C64DA5558C3681CB77CF73F71470E4D08E6F

Скачать .torrent

Скачать

15 KB

Статус: проверено
Скачан: 0 раз
Размер: 746 MB
terms.php
Профиль ЛС
Показать сообщения:    

Текущее время: 17-Окт 05:22

Часовой пояс: UTC ± 0



Вы не можете начинать темы
Вы не можете отвечать на сообщения
Вы не можете редактировать свои сообщения
Вы не можете удалять свои сообщения
Вы не можете голосовать в опросах
Вы не можете прикреплять файлы к сообщениям
Вы можете скачивать файлы