Статистика раздачи
Размер:  693 MB   |    Зарегистрирован:  8 месяцев 10 дней   |    Скачан:  0 раз

Полного источника не было: Никогда

 
     
 
 

Гость ®

Пол:
Не указан

Хэппи / Happy! Год выпуска: 2019
Страна: США
Жанр: фэнтези, триллер, комедия, криминал.
Продолжительность: ~00:50:00
Перевод: Профессиональный (многоголосый закадровый) LostFilm
Режиссёр: Брайан Тейлор, Уэйн Йип, Дэвид Петрарка
В ролях: Кристофер Мелони, Рен Колли, Александр Джеймисон, Брайс Лоренцо, Майкл Мейзе, Лили Мирожник, Скотт Барик, Бен Коул, Данте Перейра-Олсон, Маттиас Себастьан Гарри.
Описание: Ник Сакс, вечно пьяный бывший полицейский, становится наёмным убийцей. Он плывёт по течению в мире случайных смертей, секса и предательства. Когда одно из его дел идёт наперекосяк, нетрезвая жизнь Сакса навсегда меняется с появлением крошечного, вечно положительного, воображаемого голубого крылатого единорога.

Качество: WEB-DLRip
Формат: AVI
Видео: XviD, 720x400, 23,976 fps, ~ 1599 kbps
Аудио 1: 48 kHz, AC3 2 ch, ~192 kbps|LostFilm|
Аудио 2: 48 kHz, AC3 2 ch, ~192 kbps
Субтитры: Английские
Реклама: Отсутствует
Исходник: WEB-DL 1080
Предыдущие и альтернативные раздачи

Релиз

Работа со звуком: ZgurVas@EniaHD

MediaInfo

Format : AVI
Format/Info : Audio Video Interleave
File size : 693 MiB
Duration : 48mn 27s
Overall bit rate : 1 998 Kbps
Movie name : Хэппи! 2х01: Война на Пасху
Director : Бёдвар (WEB-DLRip 400p)
Writing application : VirtualDubModRus 1.5.10.2 (build 2542/release)
Comment : 31.03.2019
Video
ID : 0
Format : MPEG-4 Visual
Format profile : Advanced Simple@L5
Format settings, BVOP : 1
Format settings, QPel : No
Format settings, GMC : No warppoints
Format settings, Matrix : Default (MPEG)
Codec ID : XVID
Codec ID/Hint : XviD
Duration : 48mn 27s
Bit rate : 1 600 Kbps
Width : 720 pixels
Height : 400 pixels
Display aspect ratio : 16:9
Frame rate : 23.976 (24000/1001) fps
Color space : YUV
Chroma subsampling : 4:2:0
Bit depth : 8 bits
Scan type : Progressive
Compression mode : Lossy
Bits/(Pixel*Frame) : 0.232
Stream size : 554 MiB (80%)
Writing library : XviD 67
Audio #1
ID : 1
Format : AC-3
Format/Info : Audio Coding 3
Mode extension : CM (complete main)
Format settings, Endianness : Big
Codec ID : 2000
Duration : 48mn 27s
Bit rate mode : Constant
Bit rate : 192 Kbps
Channel(s) : 2 channels
Channel positions : Front: L R
Sampling rate : 48.0 KHz
Frame rate : 31.250 fps (1536 spf)
Compression mode : Lossy
Stream size : 66.5 MiB (10%)
Alignment : Split accross interleaves
Interleave, duration : 42 ms (1.00 video frame)
Interleave, preload duratio : 500 ms
Audio #2
ID : 2
Format : AC-3
Format/Info : Audio Coding 3
Mode extension : CM (complete main)
Format settings, Endianness : Big
Codec ID : 2000
Duration : 48mn 27s
Bit rate mode : Constant
Bit rate : 192 Kbps
Channel(s) : 2 channels
Channel positions : Front: L R
Sampling rate : 48.0 KHz
Frame rate : 31.250 fps (1536 spf)
Compression mode : Lossy
Stream size : 66.5 MiB (10%)
Alignment : Split accross interleaves
Interleave, duration : 42 ms (1.00 video frame)
Interleave, preload duratio : 500 ms

Скриншоты

Внимание! Раздача ведётся путём добавления новых серий

Внимание! Раздача ведётся путём добавления новых серий; при каждом добавлении создаётся новый торрент. Чтобы начать докачку новой серии,пользователям необходимо сделать следующее:
(1) остановить скачивание,
(2) удалить старый торрент у себя из клиента (старые серии удалять не надо),
(3) скачать новый торрент и запустить его у себя в клиенте вместо старого, при этом указать клиенту путь в старую папку куда и должнопроисходить скачивание новых серий.
Ваш клиент при этом должен произвести хеширование (проверку) старой папки (если не производит сам - помогите ему сделать это), и будет докачивать только те серии
которых у вас ещё нет. Старые серии при этом не удаляются, а продолжают раздаваться!
Eсли вы уже удалили старые серии, то предотвратить повторную закачку старых серий можно, отжав галочку в соответствующих местах при запуске нового торрента.
По возможности, желательно не удалять старые серии как можно дольше чтобы релизёр не столько продолжал раздавать старые серии, а смог сконцентрироваться на новых.
Релиз группы:
[cybertorrent.net].t1656.torrent 
Торрент: Зарегистрирован [ 2019-03-31 15:52 ] · C942CFD1DA41353112D5B04D528872D7E746D18E

Скачать .torrent

Скачать

14 KB

Статус: проверено
Скачан: 0 раз
Размер: 693 MB
terms.php
Показать сообщения:    

Текущее время: 10-Дек 16:39

Часовой пояс: UTC ± 0



Вы не можете начинать темы
Вы не можете отвечать на сообщения
Вы не можете редактировать свои сообщения
Вы не можете удалять свои сообщения
Вы не можете голосовать в опросах
Вы не можете прикреплять файлы к сообщениям
Вы можете скачивать файлы