Статистика раздачи
Размер:  2,44 GB   |    Зарегистрирован:  7 месяцев 16 дней   |    Скачан:  0 раз

Полного источника не было: Никогда

 
     
 
 

солнышко ®

Пол:
Не указан
Стаж:
8 месяцев 4 дня
Сообщений:
565

Хроники хищных городов / Mortal Engines- Страна: Новая Зеландия, США
Жанр: фантастика, фэнтези, боевик, триллер, приключения
Год выпуска: 2018
Продолжительность: 02:08:21
Перевод: Профессиональный (дублированный) iTunes
Субтитры: русские (Forced, full), английские
Оригинальная аудиодорожка: английский
Режиссер: Кристиан Риверс / Christian Rivers
В ролях: Гера Хилмарсдоттир, Роберт Шиэн, Хьюго Уивинг, Джихе, Ронан Рафтери, Лейла Джордж, Патрик Мэлахайд, Стивен Лэнг, Колин Сэлмон, Марк Митчинсон, Меник Гунератне, Реге Пейдж, Фрэнки Адамс, Лейфур Сигурдарсон, Кан Уэст, Эндрю Лииз, Ки Чан, Сара Пирс, Марк Хэдлоу, Карен Писториус, Поппи Маклеод, Джоэл Тобек, Йосон Ан
Описание: Прошли тысячелетия после того, как мир настиг апокалипсис. Человечество адаптировалось и теперь живет по новым правилам. Гигантские движущиеся мегаполисы рассекают пустоши и поглощают маленькие города ради ресурсов. Том Нэтсуорти из нижнего уровня великого Лондона оказывается в смертельной опасности, когда на его пути появляется скрывающаяся от закона бунтарка Эстер Шоу. Они не должны были встретиться, но им суждено изменить будущее.
Сэмпл: http://sendfile.su/1485563

Качество видео: BDRip-AVC (Mortal.Engines.2018.D.BDREMUX.1080p.seleZen)
Формат видео: MKV
Видео: x264, 1152x482 (2.40:1) 23.976 fps, ~1882 kbps, 0,141 bit/pixel
Аудио 1: 48 kHz, AC3 Dolby Digital, 3/2 (L,C,R,l,r) + LFE ch, ~384 kbps [русский, iTunes Russia]
Аудио 2: 48 kHz, AC3 Dolby Digital, 3/2 (L,C,R,l,r) + LFE ch, ~448 kbps [английский]
Формат субтитров: softsub (SRT)

MediaInfo

General
Unique ID : 276107655068745063287501261671582732649 (0xCFB8666B74A89E367E3D226EFDB11169)
Format : Matroska
Format version : Version 4 / Version 2
File size : 2.44 GiB
Duration : 2h 8mn
Overall bit rate : 2 717 Kbps
Encoded date : UTC 2019-03-31 07:02:26
Writing application : mkvmerge v32.0.0 ('Astral Progressions') 64-bit
Writing library : libebml v1.3.7 + libmatroska v1.5.0
Video #1
ID : 1
Format : AVC
Format/Info : Advanced Video Codec
Format profile : High@L4.1
Format settings, CABAC : Yes
Format settings, ReFrames : 13 frames
Codec ID : V_MPEG4/ISO/AVC
Duration : 2h 8mn
Bit rate : 1 882 Kbps
Width : 1 152 pixels
Height : 482 pixels
Display aspect ratio : 2.40:1
Frame rate mode : Constant
Frame rate : 23.976 (24000/1001) fps
Color space : YUV
Chroma subsampling : 4:2:0
Bit depth : 8 bits
Scan type : Progressive
Bits/(Pixel*Frame) : 0.141
Stream size : 1.69 GiB (69%)
Writing library : x264 core 157 r2935 545de2f
Encoding settings : cabac=1 / ref=13 / deblock=1:-3:-2 / analyse=0x3:0x133 / me=umh / subme=10 / psy=1 / psy_rd=1.00:0.00 / mixed_ref=1 / me_range=32 / chroma_me=1 / trellis=2 / 8x8dct=1 / cqm=0 / deadzone=21,11 / fast_pskip=0 / chroma_qp_offset=-2 / threads=6 / lookahead_threads=1 / sliced_threads=0 / nr=0 / decimate=1 / interlaced=0 / bluray_compat=0 / constrained_intra=0 / bframes=13 / b_pyramid=2 / b_adapt=2 / b_bias=0 / direct=1 / weightb=1 / open_gop=0 / weightp=2 / keyint=250 / keyint_min=23 / scenecut=40 / intra_refresh=0 / rc=crf / mbtree=0 / crf=19.2 / qcomp=0.65 / qpmin=0 / qpmax=69 / qpstep=4 / ip_ratio=1.40 / pb_ratio=1.30 / aq=3:0.90
Language : English
Default : Yes
Forced : No
Audio #2
ID : 2
Format : AC-3
Format/Info : Audio Coding 3
Mode extension : CM (complete main)
Format settings, Endianness : Big
Codec ID : A_AC3
Duration : 2h 8mn
Bit rate mode : Constant
Bit rate : 384 Kbps
Channel(s) : 6 channels
Channel positions : Front: L C R, Side: L R, LFE
Sampling rate : 48.0 KHz
Frame rate : 31.250 fps (1536 spf)
Compression mode : Lossy
Stream size : 352 MiB (14%)
Title : iTunes
Language : Russian
Default : Yes
Forced : Yes
Audio #3
ID : 3
Format : AC-3
Format/Info : Audio Coding 3
Mode extension : CM (complete main)
Format settings, Endianness : Big
Codec ID : A_AC3
Duration : 2h 8mn
Bit rate mode : Constant
Bit rate : 448 Kbps
Channel(s) : 6 channels
Channel positions : Front: L C R, Side: L R, LFE
Sampling rate : 48.0 KHz
Frame rate : 31.250 fps (1536 spf)
Compression mode : Lossy
Stream size : 411 MiB (16%)
Language : English
Default : No
Forced : No
Text #4
ID : 4
Format : UTF-8
Codec ID : S_TEXT/UTF8
Codec ID/Info : UTF-8 Plain Text
Duration : 1h 43mn
Bit rate : 1 bps
Count of elements : 19
Stream size : 852 Bytes (0%)
Title : Forced
Language : Russian
Default : Yes
Forced : Yes
Text #5
ID : 5
Format : UTF-8
Codec ID : S_TEXT/UTF8
Codec ID/Info : UTF-8 Plain Text
Duration : 1h 57mn
Bit rate : 74 bps
Count of elements : 1332
Stream size : 63.8 KiB (0%)
Title : Full
Language : Russian
Default : No
Forced : No
Text #6
ID : 6
Format : UTF-8
Codec ID : S_TEXT/UTF8
Codec ID/Info : UTF-8 Plain Text
Duration : 1h 57mn
Bit rate : 38 bps
Count of elements : 1074
Stream size : 33.0 KiB (0%)
Title : Full
Language : English
Default : No
Forced : No

лог

raw [info]: 1152x482p 1:1 @ 24000/1001 fps (cfr)
x264 [info]: using SAR=1/1
x264 [info]: using cpu capabilities: MMX2 SSE2Fast SSSE3 SSE4.2 AVX XOP FMA3 BMI1
x264 [info]: profile High, level 4.1, 4:2:0, 8-bit
x264 [info]: frame I:1584 Avg QP:16.11 size: 52589
x264 [info]: frame P:43388 Avg QP:18.01 size: 20439
x264 [info]: frame B:139669 Avg QP:21.34 size: 6028
x264 [info]: consecutive B-frames: 2.7% 3.6% 10.7% 30.4% 15.6% 23.2% 3.7% 4.9% 3.8% 0.5% 0.2% 0.4% 0.1% 0.2%
x264 [info]: mb I I16..4: 6.4% 73.8% 19.7%
x264 [info]: mb P I16..4: 2.0% 14.9% 2.5% P16..4: 40.3% 20.4% 12.1% 0.5% 0.1% skip: 7.3%
x264 [info]: mb B I16..4: 0.2% 1.1% 0.2% B16..8: 40.5% 10.0% 2.1% direct: 4.6% skip:41.3% L0:43.3% L1:45.8% BI:10.9%
x264 [info]: 8x8 transform intra:75.9% inter:72.9%
x264 [info]: coded y,uvDC,uvAC intra: 76.0% 77.3% 48.5% inter: 18.2% 15.5% 2.3%
x264 [info]: i16 v,h,dc,p: 17% 12% 7% 64%
x264 [info]: i8 v,h,dc,ddl,ddr,vr,hd,vl,hu: 15% 9% 5% 9% 13% 13% 13% 11% 13%
x264 [info]: i4 v,h,dc,ddl,ddr,vr,hd,vl,hu: 22% 6% 4% 9% 14% 12% 12% 9% 11%
x264 [info]: i8c dc,h,v,p: 33% 27% 22% 18%
x264 [info]: Weighted P-Frames: Y:23.1% UV:17.1%
x264 [info]: ref P L0: 51.4% 11.2% 15.4% 5.9% 4.1% 3.0% 2.4% 1.5% 1.2% 1.1% 0.9% 0.9% 0.8% 0.2% 0.0%
x264 [info]: ref B L0: 80.0% 9.1% 4.1% 1.9% 1.3% 1.0% 0.8% 0.5% 0.4% 0.4% 0.3% 0.1%
x264 [info]: ref B L1: 95.5% 4.5%
x264 [info]: kb/s:1882.38
x264 [total]: encoded 184641 frames, 6.05 fps, 1882.39 kb/s

Скриншоты


[cybertorrent.net].t1655.torrent 
Торрент: Зарегистрирован [ 2019-03-31 15:52 ] · 4079D76EB9AD7BB1DC4C6A8BFD04FCC976EEE9C7

Скачать .torrent

Скачать

13 KB

Статус: проверено
Скачан: 0 раз
Размер: 2,44 GB
terms.php
Профиль ЛС
Показать сообщения:    

Текущее время: 17-Ноя 05:59

Часовой пояс: UTC ± 0



Вы не можете начинать темы
Вы не можете отвечать на сообщения
Вы не можете редактировать свои сообщения
Вы не можете удалять свои сообщения
Вы не можете голосовать в опросах
Вы не можете прикреплять файлы к сообщениям
Вы можете скачивать файлы