Статистика раздачи
Размер:  366 MB   |    Зарегистрирован:  7 месяцев 17 дней   |    Скачан:  0 раз

Полного источника не было: Никогда

 
     
 
 

Гость ®

Пол:
Не указан

Чем мы заняты в тени / What We Do in the Shadows
- Год выпуска: 2019
Страна: США
Жанр: Комедия, ужасы
Продолжительность: ~00:30:00-Перевод: Профессиональный (многоголосый закадровый) | LostFilm-Режиссёр: Джемейн Клемент, Джейсон Уолинер, Тайка Вайтити-В ролях: Кайван Новак, Харви Гильен, Натасия Деметриу, Мэтт Берри, Марк Прокш, Крис Перфетти, Вероника Словиковска, Александра Хенриксон, Шиван Фэллон-Описание: «Чем мы заняты в тени» — это комедийный хоррор канала FX, являющийся телеадаптацией одноименного фильма Тайки Вайтити 2014 года, который позволил по-новому взглянуть на уже приевшийся к тому времени вампирский жанр.
В одном из причудливых домов Статен-Айленда проживает странная компания со странными именами и образом жизни. Нандор (Кайван Новак) когда-то был свирепым воином Османской империи, а потом стал вампиром, но лидерских качеств не растерял, поэтому провозгласил себя главой импровизированной коммуны и периодически пытается придумывать какие-то правила и раздавать указы, хотя никто его всерьез не воспринимает. Его соседями стали жулик и пижон Ласло (Мэтт Берри) и его клыкастая подружка Надья (Натасия Деметриу) — парочка, которая любит вспоминать свои любовные похождения из средневекового прошлого. Они перебрались из Европы в Нью-Йорк пару столетий назад потому, что, как они сами утверждают, там их невзлюбили за цвет кожи. Ну и за то, что едят людей. Справляться с реалиями современной жизни, например, оплачивать товары картой или оставлять подпись отпечатком пальца, им помогает бестолковый фамильяр Гильермо (Харви Гильен), мечтающий однажды превратиться в кровопийцу. Кроме того, есть в компании и свой изгой — энергетический вампир Колин (Марк Прокш), который высасывает из людей силы долгими скучными разговорами. Не нравится он и олдовым кровососам, так что они стараются его избегать, хоть и живут в одном доме. И все у этого диковатого сообщества идет более-менее спокойно, пока они не получают пафосное письмо от барона Афанаса (Даг Джонс) — зловещего темного лорда, который вознамерился навестить своих подопечных, чтобы напомнить им о главной цели существования всех вампиров — порабощение людишек и тотальное доминирование в мире. Но разве можно заставить выполнять столь сложную миссию того, кто хочет по большей части развлекаться, поедая девственников-ролевиков и подглядывая за симпатичными онанистами через окно? С другой стороны, ослушаться темного
лорда себе дороже — последствия могут быть непредсказуемыми для всех...- -[box=#d2d2d2,#000000]Ссылка на предыдущие и альтернативные раздачи[/box]-Качество: WEB-DLRip
Формат: AVI
Видео: XviD, 720x400, 23,976 fps, ~1500 kbps
Аудио #1: 48 kHz, MPEG Layer 3, 2 ch, ~128.00 kbps | Rus
Аудио #2: 48 kHz, MPEG Layer 3, 2 ch, ~128.00 kbps | Eng
Субтитры: нет
Реклама: нет-

MediaInfo

Format : AVI
Format/Info : Audio Video Interleave
File size : 366 MiB
Duration : 28 min 31 s
Overall bit rate : 1 793 kb/s
Writing application : VirtualDubMod 1.5.10.2 (build 2540/release)
Writing library : VirtualDubMod build 2540/release
Video
ID : 0
Format : MPEG-4 Visual
Format profile : Advanced Simple@L5
Format settings : BVOP1 / Custom Matrix
Format settings, BVOP : 1
Format settings, QPel : No
Format settings, GMC : No warppoints
Format settings, Matrix : Custom
Codec ID : XVID
Codec ID/Hint : XviD
Duration : 28 min 31 s
Bit rate : 1 523 kb/s
Width : 720 pixels
Height : 400 pixels
Display aspect ratio : 16:9
Frame rate : 23.976 (24000/1001) FPS
Color space : YUV
Chroma subsampling : 4:2:0
Bit depth : 8 bits
Scan type : Progressive
Compression mode : Lossy
Bits/(Pixel*Frame) : 0.221
Stream size : 311 MiB (85%)
Writing library : XviD 73
Audio #1
ID : 1
Format : MPEG Audio
Format version : Version 1
Format profile : Layer 3
Format settings : Joint stereo / MS Stereo
Codec ID : 55
Codec ID/Hint : MP3
Duration : 28 min 31 s
Bit rate mode : Constant
Bit rate : 128 kb/s
Channel(s) : 2 channels
Sampling rate : 48.0 kHz
Compression mode : Lossy
Stream size : 26.1 MiB (7%)
Alignment : Split accross interleaves
Interleave, duration : 42 ms (1.00 video frame)
Interleave, preload duratio : 500 ms
Audio #2
ID : 2
Format : MPEG Audio
Format version : Version 1
Format profile : Layer 3
Format settings : Joint stereo / MS Stereo
Codec ID : 55
Codec ID/Hint : MP3
Duration : 28 min 31 s
Bit rate mode : Constant
Bit rate : 128 kb/s
Channel(s) : 2 channels
Sampling rate : 48.0 kHz
Compression mode : Lossy
Stream size : 26.1 MiB (7%)
Alignment : Split accross interleaves
Interleave, duration : 42 ms (1.00 video frame)
Interleave, preload duratio : 500 ms

Скриншоты

Внимание! Раздача ведётся путём добавления новых серий

Внимание! Раздача ведётся путём добавления новых серий; при каждом добавлении создаётся новый торрент. Чтобы начать докачку новой серии, пользователям необходимо сделать следующее:
(1) остановить скачивание,
(2) удалить старый торрент у себя из клиента (старые серии удалять не надо),
(3) скачать новый торрент и запустить его у себя в клиенте вместо старого, при этом указать клиенту путь в старую папку куда и должно происходить скачивание новых серий.
Ваш клиент при этом должен произвести хеширование (проверку) старой папки (если не производит сам - помогите ему сделать это), и будет докачивать только те серии которых у вас ещё нет. Старые серии при этом не удаляются, а продолжают раздаваться!
Eсли вы уже удалили старые серии, то предотвратить повторную закачку старых серий можно, отжав галочку в соответствующих местах при запуске нового торрента. По возможности, желательно не удалять старые серии как можно дольше чтобы релизёр не столько продолжал раздавать старые серии, а смог сконцентрироваться на новых.
-
[cybertorrent.net].t1654.torrent 
Торрент: Зарегистрирован [ 2019-03-31 15:52 ] · C10C17E0C2E0693B7AAAB649033473BF0CE47A40

Скачать .torrent

Скачать

15 KB

Статус: проверено
Скачан: 0 раз
Размер: 366 MB
terms.php
Показать сообщения:    

Текущее время: 17-Ноя 17:20

Часовой пояс: UTC ± 0



Вы не можете начинать темы
Вы не можете отвечать на сообщения
Вы не можете редактировать свои сообщения
Вы не можете удалять свои сообщения
Вы не можете голосовать в опросах
Вы не можете прикреплять файлы к сообщениям
Вы можете скачивать файлы