Статистика раздачи
Размер:  1,96 GB   |    Зарегистрирован:  7 месяцев 17 дней   |    Скачан:  0 раз

Полного источника не было: Никогда

 
     
 
 

солнышко ®

Пол:
Не указан
Стаж:
8 месяцев 5 дней
Сообщений:
565

Эскобар / Loving Pablo- Страна: Испания, Болгария, США
Жанр: биография, драма, криминал
Год выпуска: 2017
Продолжительность: 01:46:00
Перевод: Профессиональный (дублированный)
Субтитры: русские, итальянские
Оригинальная аудиодорожка: английский
Режиссер: Фернандо Леон Де Араноа / Fernando León de Aranoa
В ролях: Хавьер Бардем, Пенелопа Крус, Питер Сарсгаард, Жульет Рестрепо, Оскар Хаенада, Фреди Йэт, Рикардо Ниньо, Педро Кальво, Джованни Альварез, Дэвид Валенсиа
Описание: История восхождения Пабло Эскобара — его стремительного пути к миллиардам, могуществу и непростительным преступлениям. Во всесильного наркобарона влюбляется журналистка, чьи мемуары положены в основу фильма.
Сэмпл: http://sendfile.su/1485462

Качество видео: BDRip-AVC (Loving.Pablo.2017.BDRemux.x264.Master5)
Формат видео: MKV
Видео: x264, 1152x482 (2.40:1) 24 fps, ~1748 kbps, 0,131 bit/pixel
Аудио 1: 48 kHz, AC3 Dolby Digital, 3/2 (L,C,R,l,r) + LFE ch, ~448 kbps | Дубляж
Аудио 2: 48 kHz, AC3 Dolby Digital, 3/2 (L,C,R,l,r) + LFE ch, ~448 kbps | Английский
Формат субтитров: softsub (SRT)

MediaInfo

General
Unique ID : 8506425542755040753561705220854459700 (0x6664728DC94D5E46047E73386A72D34)
Format : Matroska
Format version : Version 4 / Version 2
File size : 1.96 GiB
Duration : 1h 46mn
Overall bit rate : 2 645 Kbps
Encoded date : UTC 2019-03-23 11:06:48
Writing application : mkvmerge v32.0.0 ('Astral Progressions') 64-bit
Writing library : libebml v1.3.7 + libmatroska v1.5.0
Cover : Yes
Attachments : cover.jpg
Video #1
ID : 1
Format : AVC
Format/Info : Advanced Video Codec
Format profile : High@L4.1
Format settings, CABAC : Yes
Format settings, ReFrames : 13 frames
Codec ID : V_MPEG4/ISO/AVC
Duration : 1h 46mn
Bit rate : 1 748 Kbps
Width : 1 152 pixels
Height : 482 pixels
Display aspect ratio : 2.40:1
Frame rate mode : Constant
Frame rate : 24.000 fps
Color space : YUV
Chroma subsampling : 4:2:0
Bit depth : 8 bits
Scan type : Progressive
Bits/(Pixel*Frame) : 0.131
Stream size : 1.29 GiB (66%)
Writing library : x264 core 157 r2935 545de2f
Encoding settings : cabac=1 / ref=13 / deblock=1:-3:-2 / analyse=0x3:0x133 / me=umh / subme=10 / psy=1 / psy_rd=1.00:0.00 / mixed_ref=1 / me_range=32 / chroma_me=1 / trellis=2 / 8x8dct=1 / cqm=0 / deadzone=21,11 / fast_pskip=0 / chroma_qp_offset=-2 / threads=6 / lookahead_threads=1 / sliced_threads=0 / nr=0 / decimate=1 / interlaced=0 / bluray_compat=0 / constrained_intra=0 / bframes=10 / b_pyramid=2 / b_adapt=2 / b_bias=0 / direct=1 / weightb=1 / open_gop=0 / weightp=2 / keyint=250 / keyint_min=23 / scenecut=40 / intra_refresh=0 / rc=crf / mbtree=0 / crf=19.0 / qcomp=0.65 / qpmin=0 / qpmax=69 / qpstep=4 / ip_ratio=1.40 / pb_ratio=1.30 / aq=3:0.90
Language : English
Default : Yes
Forced : No
Audio #2
ID : 2
Format : AC-3
Format/Info : Audio Coding 3
Mode extension : CM (complete main)
Format settings, Endianness : Big
Codec ID : A_AC3
Duration : 1h 45mn
Bit rate mode : Constant
Bit rate : 448 Kbps
Channel(s) : 6 channels
Channel positions : Front: L C R, Side: L R, LFE
Sampling rate : 48.0 KHz
Frame rate : 31.250 fps (1536 spf)
Compression mode : Lossy
Stream size : 339 MiB (17%)
Title : Лицензия
Language : Russian
Default : No
Forced : No
Audio #3
ID : 3
Format : AC-3
Format/Info : Audio Coding 3
Mode extension : CM (complete main)
Format settings, Endianness : Big
Codec ID : A_AC3
Duration : 1h 46mn
Bit rate mode : Constant
Bit rate : 448 Kbps
Channel(s) : 6 channels
Channel positions : Front: L C R, Side: L R, LFE
Sampling rate : 48.0 KHz
Frame rate : 31.250 fps (1536 spf)
Compression mode : Lossy
Stream size : 340 MiB (17%)
Language : English
Default : Yes
Forced : No
Text #4
ID : 4
Format : UTF-8
Codec ID : S_TEXT/UTF8
Codec ID/Info : UTF-8 Plain Text
Duration : 1h 40mn
Bit rate : 117 bps
Count of elements : 1304
Stream size : 86.1 KiB (0%)
Title : Blu-rsy RUS
Language : Russian
Default : No
Forced : No
Text #5
ID : 5
Format : UTF-8
Codec ID : S_TEXT/UTF8
Codec ID/Info : UTF-8 Plain Text
Duration : 1s 82ms
Bit rate : 266 bps
Count of elements : 1
Stream size : 36.0 Bytes (0%)
Title : Forced
Language : Italian
Default : No
Forced : No
Text #6
ID : 6
Format : UTF-8
Codec ID : S_TEXT/UTF8
Codec ID/Info : UTF-8 Plain Text
Duration : 1h 39mn
Bit rate : 79 bps
Count of elements : 1424
Stream size : 57.9 KiB (0%)
Title : SDH
Language : Italian
Default : No
Forced : No

лог

raw [info]: 1152x482p 1:1 @ 10000000/416667 fps (cfr)
x264 [info]: using SAR=1/1
x264 [info]: using cpu capabilities: MMX2 SSE2Fast SSSE3 SSE4.2 AVX XOP FMA3 BMI1
x264 [info]: profile High, level 4.1, 4:2:0, 8-bit
x264 [info]: frame I:1307 Avg QP:15.78 size: 57056
x264 [info]: frame P:33234 Avg QP:17.90 size: 19980
x264 [info]: frame B:118104 Avg QP:19.85 size: 5512
x264 [info]: consecutive B-frames: 1.7% 2.3% 7.4% 28.5% 18.7% 31.7% 3.0% 1.4% 0.8% 3.3% 1.1%
x264 [info]: mb I I16..4: 9.6% 69.9% 20.5%
x264 [info]: mb P I16..4: 1.7% 10.7% 2.1% P16..4: 41.6% 20.4% 14.5% 0.7% 0.2% skip: 8.1%
x264 [info]: mb B I16..4: 0.3% 0.9% 0.2% B16..8: 35.1% 9.7% 2.3% direct: 4.8% skip:46.8% L0:42.8% L1:43.2% BI:14.0%
x264 [info]: 8x8 transform intra:71.6% inter:67.9%
x264 [info]: coded y,uvDC,uvAC intra: 68.7% 83.8% 59.5% inter: 13.9% 21.0% 4.2%
x264 [info]: i16 v,h,dc,p: 39% 15% 7% 39%
x264 [info]: i8 v,h,dc,ddl,ddr,vr,hd,vl,hu: 21% 11% 10% 7% 9% 11% 10% 10% 11%
x264 [info]: i4 v,h,dc,ddl,ddr,vr,hd,vl,hu: 30% 9% 6% 7% 11% 11% 9% 8% 8%
x264 [info]: i8c dc,h,v,p: 37% 24% 24% 15%
x264 [info]: Weighted P-Frames: Y:5.7% UV:3.0%
x264 [info]: ref P L0: 48.2% 10.7% 16.3% 6.0% 4.8% 3.4% 3.0% 1.6% 1.5% 1.2% 1.2% 1.0% 1.0% 0.0% 0.0%
x264 [info]: ref B L0: 73.8% 10.7% 5.5% 2.7% 2.0% 1.5% 1.2% 0.8% 0.7% 0.6% 0.4% 0.2%
x264 [info]: ref B L1: 94.2% 5.8%
x264 [info]: kb/s:1747.82
x264 [total]: encoded 152645 frames, 7.42 fps, 1747.82 kb/s

Скриншоты


[cybertorrent.net].t1649.torrent 
Торрент: Зарегистрирован [ 2019-03-31 15:52 ] · 885BB4220F134FE1EDD7B8C43E571DFFA0740132

Скачать .torrent

Скачать

20 KB

Статус: проверено
Скачан: 0 раз
Размер: 1,96 GB
terms.php
Профиль ЛС
Показать сообщения:    

Текущее время: 17-Ноя 17:20

Часовой пояс: UTC ± 0



Вы не можете начинать темы
Вы не можете отвечать на сообщения
Вы не можете редактировать свои сообщения
Вы не можете удалять свои сообщения
Вы не можете голосовать в опросах
Вы не можете прикреплять файлы к сообщениям
Вы можете скачивать файлы