Статистика раздачи
Размер:  2,12 GB   |    Зарегистрирован:  7 месяцев 18 дней   |    Скачан:  0 раз

Полного источника не было: Никогда

 
     
 
 

serzh ®

Пол:
Не указан
Стаж:
8 месяцев 6 дней
Сообщений:
384

Правонарушитель / Взломщик! Взломщик! / Буян! Буян! / Breaker! Breaker!- Страна: США
Жанр: боевик, криминал, приключения
Год выпуска: 1977
Продолжительность: 01:24:44
Перевод: Профессиональный (двухголосый закадровый)
Перевод 2: Авторский (одноголосый закадровый) Ю.Сербин
Субтитры: нет
Оригинальная аудиодорожка: английский
Режиссер: Дон Хьюлитт / Don Hulette
В ролях: Чак Норрис, Джордж Мёрдок, Терри О’Коннор, Дон Гентри, Джон Ди Фуско, Рон Цедиллос, Майкл Аугенстейн, Дэн Вандегрифт, Дуглас Стивенсон, Пол Кавеки
Описание: Джон Доус, известный и популярный в узкий кругах водила-дальнобойщик, а также чемпион по восточным единоборствам, волей случая натыкается на живущий по собственным правилам тихий городок «старого времени» со своей иерархией и чуждыми цивилизации порядками, — «Тексас Сити» на окраине Лос-Анджелеса.
Это происходит после загадочного исчезновения его младшего брата Билли, отправившегося в свою первую поездку по доставке сухогруза. Джон сразу заподозрил в исчезновении брата именно этот городок, жители которого — ярые фанатики, отшельники и затворники, живущие под игом кровожадного и безжалостного местного судьи Триммингса, держащего с помощью верных подручных полицейских округу в страхе и ни под каким предлогом не пускающих «чужаков» и заблудших туристов в своё уютное и тихое логово.
Пытливый и неустанно добивающийся правды и справедливости Джон будет отчаянно добиваться вразумления и исправления злодеев во главе с сумасшедшим судьей. Он задаст шороху местным представителям власти и порядка и не будет церемониться со столь наглыми и извращёнными людьми. Его война начинается.
Сэмпл: http://sendfile.su/1485454

Качество видео: BDRip-AVC (Правонарушитель 1977 BDRemux)
Формат видео: MKV
Видео: x264, 804x436 (1.85:1) 23,976 fps, ~2999 kbps, 0,357 bit/pixel
Аудио 1: 48 kHz, AC3 Dolby Digital, 2/0 (L,R), ~192 kbps avg | DVO
Аудио 2: 48 kHz, AC3 Dolby Digital, 2/0 (L,R), ~192 kbps avg | Сербин
Аудио 3: 48 kHz, AC3 Dolby Digital, 2/0 (L,R), ~192 kbps avg | Английский
Формат субтитров: softsub (SRT)

MediaInfo

General
Unique ID : 163529850655970975572442446192992909936 (0x7B06B4204E5734C38856E358EE60FA70)
Format : Matroska
Format version : Version 4 / Version 2
File size : 2.12 GiB
Duration : 1h 24mn
Overall bit rate : 3 576 Kbps
Encoded date : UTC 2019-03-17 15:19:23
Writing application : mkvmerge v32.0.0 ('Astral Progressions') 64-bit
Writing library : libebml v1.3.7 + libmatroska v1.5.0
Video #1
ID : 1
Format : AVC
Format/Info : Advanced Video Codec
Format profile : High@L4.1
Format settings, CABAC : Yes
Format settings, ReFrames : 11 frames
Codec ID : V_MPEG4/ISO/AVC
Duration : 1h 24mn
Bit rate : 2 999 Kbps
Width : 804 pixels
Height : 436 pixels
Display aspect ratio : 1.85:1
Frame rate mode : Constant
Frame rate : 23.976 (24000/1001) fps
Color space : YUV
Chroma subsampling : 4:2:0
Bit depth : 8 bits
Scan type : Progressive
Bits/(Pixel*Frame) : 0.357
Stream size : 1.77 GiB (84%)
Writing library : x264 core 157 r2935 545de2f
Encoding settings : cabac=1 / ref=11 / deblock=1:-3:-2 / analyse=0x3:0x133 / me=umh / subme=10 / psy=1 / psy_rd=1.00:0.00 / mixed_ref=1 / me_range=32 / chroma_me=1 / trellis=2 / 8x8dct=1 / cqm=0 / deadzone=21,11 / fast_pskip=0 / chroma_qp_offset=-2 / threads=6 / lookahead_threads=1 / sliced_threads=0 / nr=0 / decimate=1 / interlaced=0 / bluray_compat=0 / constrained_intra=0 / bframes=10 / b_pyramid=2 / b_adapt=2 / b_bias=0 / direct=3 / weightb=1 / open_gop=0 / weightp=2 / keyint=250 / keyint_min=23 / scenecut=40 / intra_refresh=0 / rc=2pass / mbtree=0 / bitrate=2999 / ratetol=1.0 / qcomp=0.65 / qpmin=0 / qpmax=69 / qpstep=4 / cplxblur=20.0 / qblur=0.5 / ip_ratio=1.40 / pb_ratio=1.30 / aq=3:0.90
Language : English
Default : Yes
Forced : No
Audio #2
ID : 2
Format : AC-3
Format/Info : Audio Coding 3
Mode extension : CM (complete main)
Format settings, Endianness : Big
Codec ID : A_AC3
Duration : 1h 24mn
Bit rate mode : Constant
Bit rate : 192 Kbps
Channel(s) : 2 channels
Channel positions : Front: L R
Sampling rate : 48.0 KHz
Frame rate : 31.250 fps (1536 spf)
Compression mode : Lossy
Stream size : 116 MiB (5%)
Language : Russian
Default : Yes
Forced : No
Audio #3
ID : 3
Format : AC-3
Format/Info : Audio Coding 3
Mode extension : CM (complete main)
Format settings, Endianness : Big
Codec ID : A_AC3
Duration : 1h 24mn
Bit rate mode : Constant
Bit rate : 192 Kbps
Channel(s) : 2 channels
Channel positions : Front: L R
Sampling rate : 48.0 KHz
Frame rate : 31.250 fps (1536 spf)
Compression mode : Lossy
Stream size : 116 MiB (5%)
Title : Serbin
Language : Russian
Default : No
Forced : No
Audio #4
ID : 4
Format : AC-3
Format/Info : Audio Coding 3
Mode extension : CM (complete main)
Format settings, Endianness : Big
Codec ID : A_AC3
Duration : 1h 24mn
Bit rate mode : Constant
Bit rate : 192 Kbps
Channel(s) : 2 channels
Channel positions : Front: L R
Sampling rate : 48.0 KHz
Frame rate : 31.250 fps (1536 spf)
Compression mode : Lossy
Stream size : 116 MiB (5%)
Language : English
Default : No
Forced : No

лог

raw [info]: 804x436p 1:1 @ 24000/1001 fps (cfr)
x264 [info]: using SAR=1/1
x264 [info]: using cpu capabilities: MMX2 SSE2Fast SSSE3 SSE4.2 AVX XOP FMA3 BMI1
x264 [info]: profile High, level 4.1, 4:2:0, 8-bit
x264 [info]: frame I:969 Avg QP:17.67 size: 67294
x264 [info]: frame P:26135 Avg QP:20.30 size: 26971
x264 [info]: frame B:94791 Avg QP:21.96 size: 11977
x264 [info]: consecutive B-frames: 2.2% 3.1% 8.2% 19.1% 15.5% 34.5% 6.9% 3.6% 3.3% 1.8% 1.9%
x264 [info]: mb I I16..4: 1.3% 80.0% 18.6%
x264 [info]: mb P I16..4: 0.3% 17.2% 3.2% P16..4: 33.8% 25.1% 17.5% 0.7% 0.2% skip: 2.0%
x264 [info]: mb B I16..4: 0.0% 2.0% 0.5% B16..8: 42.0% 17.2% 5.7% direct:11.1% skip:21.5% L0:45.8% L1:38.8% BI:15.4%
x264 [info]: 8x8 transform intra:82.0% inter:61.2%
x264 [info]: direct mvs spatial:98.2% temporal:1.8%
x264 [info]: coded y,uvDC,uvAC intra: 93.2% 84.2% 48.4% inter: 50.4% 31.1% 2.3%
x264 [info]: i16 v,h,dc,p: 63% 12% 5% 20%
x264 [info]: i8 v,h,dc,ddl,ddr,vr,hd,vl,hu: 11% 8% 9% 10% 13% 13% 13% 11% 12%
x264 [info]: i4 v,h,dc,ddl,ddr,vr,hd,vl,hu: 38% 10% 4% 6% 9% 9% 9% 7% 8%
x264 [info]: i8c dc,h,v,p: 37% 27% 20% 15%
x264 [info]: Weighted P-Frames: Y:18.1% UV:8.2%
x264 [info]: ref P L0: 41.5% 15.1% 16.3% 6.8% 5.5% 3.9% 3.5% 2.0% 1.9% 1.5% 1.6% 0.3% 0.0%
x264 [info]: ref B L0: 66.6% 13.0% 7.0% 3.9% 2.9% 2.4% 1.9% 1.3% 0.8% 0.3%
x264 [info]: ref B L1: 92.9% 7.1%
x264 [info]: kb/s:2998.17
x264 [total]: encoded 121895 frames, 8.49 fps, 2998.17 kb/s

Скриншоты


[cybertorrent.net].t1648.torrent 
Торрент: Зарегистрирован [ 2019-03-31 15:52 ] · 00ECFD0805C5428EDF4F2C5706F3367AEB561685

Скачать .torrent

Скачать

11 KB

Статус: проверено
Скачан: 0 раз
Размер: 2,12 GB
terms.php
Профиль ЛС
Показать сообщения:    

Текущее время: 19-Ноя 03:44

Часовой пояс: UTC ± 0



Вы не можете начинать темы
Вы не можете отвечать на сообщения
Вы не можете редактировать свои сообщения
Вы не можете удалять свои сообщения
Вы не можете голосовать в опросах
Вы не можете прикреплять файлы к сообщениям
Вы можете скачивать файлы