Статистика раздачи
Размер:  1,46 GB   |    Зарегистрирован:  8 месяцев 7 дней   |    Скачан:  0 раз
Сидов:  131  [  0 KB/s  ]   Личеров:  2  [  0 KB/s  ]  
 
     
 
 

солнышко ®

Пол:
Не указан
Стаж:
8 месяцев 26 дней
Сообщений:
565

Посыльный / Message Man
Страна: Индонезия, Австралия
Жанр: боевик, триллер, криминал
Год выпуска: 2018
Продолжительность: 01:30:11-Перевод: Любительский (многоголосый закадровый) | HDRezka Studio
Субтитры: английские (hardsub)
Оригинальная аудиодорожка: нет-Режиссер: Кори Пирсон / Corey Pearson-В ролях: Пол О’Брайэн, Захира Алека Ашари, Альфридиус Годфред, Марио Ирвинся, Агни Пратиштха Кусвардоно, Рики Мартин, Валентайн Пайен, Гэри Плант, Эрма Пратма, Пэтти Сандя-Описание: Приняв решение покончить с криминальным прошлым, бывший наемный убийца оседает вблизи побережья Индонезии, используя в качестве жилья маленькую яхту. Скромное и одинокое существование помогает Райану восстановить душевное спокойствие, но однажды его покой нарушает знакомство с задорным мальчиком Дони, которое быстро перерастает в дружбу. Однако вскоре размеренной жизни Райана приходит конец, когда Дони оказывается при смерти из-за действий местных бандитов. Готовясь отомстить за лучшего друга, бывший наемник неожиданно узнает, что индонезийские головорезы связаны с врагом из его прошлого...- -Качество видео: WEB-DLRip
Формат видео: AVI
Видео: 720x304 (2.37:1), 24.000 fps, XviD build 73 ~2109 kbps avg, 0.40 bit/pixel
Аудио: 48 kHz, AC3 Dolby Digital, 2/0 (L,R) ch, ~192 kbps-[box]Сэмпл[/box]-

MediaInfo

Код:Формат : AVI
Формат/Информация : Audio Video Interleave
Размер файла : 1,46 Гбайт
Продолжительность : 1 ч. 30 м.
Общий поток : 2311 Кбит/сек
Программа кодирования : VirtualDubMod 1.5.10.3 | www.virtualdub-fr.org || (build 2550/release)
Библиотека кодирования : VirtualDubMod build 2550/release
Видео
Идентификатор : 0
Формат : MPEG-4 Visual
Профиль формата : Advanced Simple@L5
Настройки формата : BVOP1 / Custom Matrix
Параметр BVOP формата : 1
Параметр QPel формата : Нет
Параметр GMC формата : Без точки перехода
Параметр матрицы формата : Выборочная
Идентификатор кодека : XVID
Идентификатор кодека/Подсказка : XviD
Продолжительность : 1 ч. 30 м.
Битрейт : 2110 Кбит/сек
Ширина : 720 пикселей
Высота : 304 пикселя
Соотношение сторон : 2,35:1
Частота кадров : 24,000 кадра/сек
Цветовое пространство : YUV
Субдискретизация насыщенности : 4:2:0
Битовая глубина : 8 бит
Тип развёртки : Прогрессивная
Метод сжатия : С потерями
Бит/(Пиксели*Кадры) : 0.402
Размер потока : 1,33 Гбайт (91%)
Библиотека кодирования : XviD 73
Аудио
Идентификатор : 1
Формат : AC-3
Формат/Информация : Audio Coding 3
Коммерческое название : Dolby Digital
Идентификатор кодека : 2000
Продолжительность : 1 ч. 30 м.
Вид битрейта : Постоянный
Битрейт : 192 Кбит/сек
Каналы : 2 канала
Channel layout : L R
Частота : 48,0 КГц
Частота кадров : 31,250 кадров/сек (1536 SPF)
Битовая глубина : 16 бит
Метод сжатия : С потерями
Размер потока : 124 Мбайт (8%)
Выравнивание : Разделение по промежуткам
Продолжительность промежутка : 42 мс. (1,00 видеокадр)
Время предзагрузки промежутка : 500 мс.
ServiceKind/String : Complete Main

Скриншоты


При появлении проф. озвучки, перезалью.
[cybertorrent.net].t1641.torrent 
Торрент: Зарегистрирован [ 2019-03-31 15:52 ] · 53D276D111E1F816D30BDA7054D1F442003184EC

Скачать .torrent

Скачать

15 KB

Статус: проверено
Скачан: 0 раз
Размер: 1,46 GB
terms.php
Профиль [ЛС]
Показать сообщения:    

Текущее время: 07-Дек 18:40

Часовой пояс: UTC ± 0



Вы не можете начинать темы
Вы не можете отвечать на сообщения
Вы не можете редактировать свои сообщения
Вы не можете удалять свои сообщения
Вы не можете голосовать в опросах
Вы не можете прикреплять файлы к сообщениям
Вы можете скачивать файлы