Статистика раздачи
Размер:  1,44 GB   |    Зарегистрирован:  7 месяцев 21 день   |    Скачан:  0 раз

Полного источника не было: Никогда

 
     
 
 

serzh ®

Пол:
Не указан
Стаж:
8 месяцев 10 дней
Сообщений:
384

Коммандо / Commando
Страна: США
Жанр: боевик, приключения
Год выпуска: 1985
Продолжительность: 01:30:16
Перевод: Одноголосый закадровый студии "Святослав"
Субтитры: нет
Оригинальная аудиодорожка: нет
Режиссер: Марк Л. Лестер /Mark L. Lester/
В ролях: Арнольд Шварценеггер /Arnold Schwarzenegger/, Рэй Доун Чонг /Rae Dawn Chong/, Дэн Хедайя /Dan Hedaya/, Джеймс Олсон /James Olson/, Алисса Милано /Alyssa Milano/, Дэвид Патрик Келли /David Patrick Kelly/, Вернон Уэллс /Vernon Wells/
Рецензия Михаила Иванова: Спецагент в отставке Джон Мэтрикс (Шварценеггер) вынужден опять заняться привычным делом, когда мстительные бандиты-террористы похищают его 11-летнюю дочурку. К финалу Арни накрошил человек пятьсот, ну а от него самого, конечно, пули отскакивают.
Доп. информация: исходник от _Infest_; перевод Святослава оцифровал с древней ЭЛЕКТРОНИКИ_ВК-180 и подготовил karlll
~СЭМПЛ~
Качество видео: BDRip-AVC
Формат видео: MKV
Видео: MPEG4 Video (H264) 1152x624 23.976fps 2058Kbps
Аудио: Dolby AC3 48KHz 2ch 224Kbps

MediaInfo

Format : Matroska
Format version : Version 2
File size : 1.44 GiB
Duration : 1 h 30 min
Overall bit rate : 2 283 kb/s
Movie name : Commando_1985_BDRip_Святослав_KBC
Encoded date : UTC 2019-03-29 14:24:14
Writing application : mkvmerge v6.9.1 ('Blue Panther') 32bit built on Apr 18 2014 18:15:44
Writing library : libebml v1.3.0 + libmatroska v1.4.1
Video
ID : 1
Format : AVC
Format/Info : Advanced Video Codec
Format profile : High@L3.1
Format settings : CABAC / 7 Ref Frames
Format settings, CABAC : Yes
Format settings, RefFrames : 7 frames
Codec ID : V_MPEG4/ISO/AVC
Duration : 1 h 30 min
Bit rate : 2 058 kb/s
Width : 1 152 pixels
Height : 624 pixels
Display aspect ratio : 1.85:1
Frame rate mode : Constant
Frame rate : 23.976 (24000/1001) FPS
Color space : YUV
Chroma subsampling : 4:2:0
Bit depth : 8 bits
Scan type : Progressive
Bits/(Pixel*Frame) : 0.119
Stream size : 1.27 GiB (88%)
Title : Commando_1985
Writing library : x264 core 152 r2851kMod ba24899
Encoding settings : cabac=1 / ref=7 / deblock=1:-1:-1 / analyse=0x3:0x113 / me=umh / subme=9 / psy=1 / fade_compensate=0.00 / psy_rd=1.00:0.20 / mixed_ref=1 / me_range=24 / chroma_me=1 / trellis=2 / 8x8dct=1 / cqm=0 / deadzone=21,11 / fast_pskip=0 / chroma_qp_offset=-3 / threads=6 / lookahead_threads=1 / sliced_threads=0 / nr=0 / decimate=0 / interlaced=0 / bluray_compat=0 / constrained_intra=0 / bframes=7 / b_pyramid=2 / b_adapt=2 / b_bias=0 / direct=3 / weightb=1 / open_gop=0 / weightp=2 / keyint=250 / keyint_min=23 / scenecut=40 / intra_refresh=0 / rc_lookahead=50 / rc=2pass / mbtree=1 / bitrate=2058 / ratetol=1.0 / qcomp=0.60 / qpmin=0 / qpmax=69 / qpstep=4 / cplxblur=20.0 / qblur=0.5 / vbv_maxrate=14000 / vbv_bufsize=14000 / nal_hrd=none / filler=0 / ip_ratio=1.40 / aq=1:1.00
Language : English
Default : Yes
Forced : No
Audio
ID : 2
Format : AC-3
Format/Info : Audio Coding 3
Commercial name : Dolby Digital
Codec ID : A_AC3
Duration : 1 h 30 min
Bit rate mode : Constant
Bit rate : 224 kb/s
Channel(s) : 2 channels
Channel layout : L R
Sampling rate : 48.0 kHz
Frame rate : 31.250 FPS (1536 SPF)
Bit depth : 16 bits
Compression mode : Lossy
Stream size : 145 MiB (10%)
Title : студия "Святослав"
Language : Russian
Service kind : Complete Main
Default : Yes
Forced : No

Скриншоты

[cybertorrent.net].t1640.torrent 
Торрент: Зарегистрирован [ 2019-03-31 15:52 ] · 695CCD25A01F18D8ACE8516466514A46D252C39F

Скачать .torrent

Скачать

15 KB

Статус: проверено
Скачан: 0 раз
Размер: 1,44 GB
terms.php
Профиль [ЛС]
Показать сообщения:    

Текущее время: 22-Ноя 12:56

Часовой пояс: UTC ± 0



Вы не можете начинать темы
Вы не можете отвечать на сообщения
Вы не можете редактировать свои сообщения
Вы не можете удалять свои сообщения
Вы не можете голосовать в опросах
Вы не можете прикреплять файлы к сообщениям
Вы можете скачивать файлы