Статистика раздачи
Нет
 
     
 
 

MAGNAT ®

Пол:
Мужской
Стаж:
2 года
Сообщений:
9946

Откуда: Москва

Ани Лорак - DIVA
Страна: Украина
Жанр: Pop, Dance
Продолжительность: 01:41:20
Год создания: 2019
Описание:
Шоу «DIVA» - высокотехнологичное концертное шоу мирового уровня, грандиозное шоу-перевоплощение с непревзойденной Ани Лорак в главной роли: сотни декораций и спецэффектов, уходящая из-под ног сцена, специально создаваемые для шоу костюмы…
Декорации сменяют друг друга с каждой композицией: ночное кабаре, райский пляж, фантастический пейзаж из будущего, трогательная сцена под самым настоящим дождем - вот неполный перечень того, что приготовила Ани Лорак для телезрителей.
В программе звучат как любимые, так и совершенно новые песни. Признанные хиты представлены в ином звучании. Лирические композиции благодаря необычным аранжировкам превратились в зажигательные треки, а танцевальные напротив — в душевные баллады: «Зеркала», «Обними меня», «Сопрано», «Сумасшедшая», «Ты еще любишь», «Забирай рай» и другие.
Треклист:
01. Shady lady
02. С первого взгляда
03. Зеркала (альбом www.anilorak.com)
04. Боже мой
05. Разве ты любил
06. Сопрано
07. Ты еще любишь
08. Новый бывший
09. Сумасшедшая
10. Обними меня
11. Зеркала
12. Зажигай сердце
13. Снится сон
14. I will always love you
15. Песня Оксаны
16. Я стану твоей
17. Забирай рай
18. Уходи по-английски
19. Удержи мое сердце
20. Медленно
Доп. информация: Исходник HDTV (Спасибо Scorpman).
Сделано по заявке o9p3k641.
Особое спасибо CHKA1961, за консультации по созданию данного релиза.
Меню статическое, озвученное, собственного производства.
Полученный результат проверен на работоспособность на софтовом Media Player Classic Home Cinema, записан на болванку с помощью ImgBurn и вновь проверен уже на бытовом плеере.--

Программы, использованные при создании этого релиза

Демуксинг
MeGUI- HD-DVD/Blu-ray Streams Extractor
Обработка видео
DGDecodeNV
AviSynth
Rhozet Carbon Coder
Обработка аудио
BeHappy
Audacity
Создание меню, Авторинг и проверка
SnagIt
MPEG Video Wizard DVD
Muxman
DVD-lab PRO
DvdReMakePro

Скрипт

LoadPlugin("C:\Portable\DGDecNV2050\DGDecodeNV.dll")
DGSource("E:\Autoring DVD\Ani Lorack - DIVA\T1_Video -.dgi")
LoadPlugin("C:\Program Files (x86)\AviSynth 2.5\plugins\TDeint.dll")
TDeint(mode=1)
Lanczos4Resize(720,576)
AssumeTFF()
SeparateFields()
SelectEvery(4,0,3)
Weave()
LoadPlugin("C:\Program Files (x86)\AviSynth 2.5\plugins\AutoYUY2.dll")
AutoYUY2()
LoadPlugin("C:\Program Files (x86)\AviSynth 2.5\plugins\ColorMatrix.dll")
ColorMatrix(mode="Rec.709->Rec.601", inputFR=false, clamp=0)

Точка перехода

--Разбивка на главы по трекам: есть
Качество : HDTV=>DVD9
Формат: DVD video
Видео кодек: MPEG2
Аудио кодек: AC3
Видео: PAL 16:9 (720x576) VBR Auto Letterboxed, ~8875(9000) kbps, 25.000 fps
Аудио: Russian (Dolby AC3, 2 ch), 192 Kbps, 48.0 KHz

DVDinfo + MI

Title: Ани Лорак - DIVA
Size: 6.53 Gb ( 6 847 336,00 KBytes ) - DVD-9
Enabled regions: 1, 2, 3, 4, 5, 6, 7, 8
VTS_01 :
Play Length: 01:41:20
Video: PAL 16:9 (720x576) VBR, Auto Letterboxed
Audio:
Russian, AC3, 2/0 (L,R) ch, 192 kbps, Delay 0 mSec
* Menus Information *
VIDEO_TS Menu
Video:
PAL 16:9 (720x576) VBR
Auto Letterboxed
Audio:
Not specified (Dolby AC3, 2 ch)
English Language Unit :
Title Menu
VTS_01 Menu
Video:
PAL 16:9 (720x576) VBR
Auto Letterboxed
Audio:
Not specified (Dolby AC3, 2 ch)
English Language Unit :
Root Menu-General
Complete name : J:\Music Video\DVD\Ани Лорак - DIVA\VIDEO_TS\VIDEO_TS.BUP
Format : DVD Video
Format profile : Menu
File size : 12.0 KiB
Overall bit rate mode : Variable
FileExtension_Invalid : ifo
Video
ID : 224 (0xE0)
Format : MPEG Video
Format version : Version 2
Bit rate mode : Variable
Width : 720 pixels
Height : 576 pixels
Display aspect ratio : 16:9
Frame rate : 25.000 FPS
Standard : PAL
Compression mode : Lossy
Audio
Format : AC-3
Format/Info : Audio Coding 3
Channel(s) : 2 channels
Sampling rate : 48.0 kHz
Compression mode : Lossy
Text
Format : RLE
Format/Info : Run-length encoding
Bit depth : 2 bits
General
Complete name : J:\Music Video\DVD\Ани Лорак - DIVA\VIDEO_TS\VIDEO_TS.IFO
Format : DVD Video
Format profile : Menu
File size : 12.0 KiB
Overall bit rate mode : Variable
Video
ID : 224 (0xE0)
Format : MPEG Video
Format version : Version 2
Bit rate mode : Variable
Width : 720 pixels
Height : 576 pixels
Display aspect ratio : 16:9
Frame rate : 25.000 FPS
Standard : PAL
Compression mode : Lossy
Audio
Format : AC-3
Format/Info : Audio Coding 3
Channel(s) : 2 channels
Sampling rate : 48.0 kHz
Compression mode : Lossy
Text
Format : RLE
Format/Info : Run-length encoding
Bit depth : 2 bits
General
Complete name : J:\Music Video\DVD\Ани Лорак - DIVA\VIDEO_TS\VIDEO_TS.VOB
Format : MPEG-PS
File size : 6.05 MiB
Duration : 8 s 0 ms
Overall bit rate mode : Variable
Overall bit rate : 6 341 kb/s
Video
ID : 224 (0xE0)
Format : MPEG Video
Format version : Version 2
Format profile : Main@Main
Format settings, BVOP : Yes
Format settings, Matrix : Custom
Format settings, GOP : M=3, N=15
Format settings, picture structure : Frame
Duration : 8 s 0 ms
Bit rate mode : Variable
Bit rate : 5 990 kb/s
Maximum bit rate : 8 000 kb/s
Width : 720 pixels
Height : 576 pixels
Display aspect ratio : 16:9
Frame rate : 25.000 FPS
Standard : PAL
Color space : YUV
Chroma subsampling : 4:2:0
Bit depth : 8 bits
Scan type : Interlaced
Scan order : Top Field First
Compression mode : Lossy
Bits/(Pixel*Frame) : 0.578
Time code of first frame : 00:00:00:00
Time code source : Group of pictures header
GOP, Open/Closed : Open
GOP, Open/Closed of first frame : Closed
Stream size : 5.71 MiB (94%)
Audio
ID : 189 (0xBD)-128 (0x80)
Format : AC-3
Format/Info : Audio Coding 3
Format settings, Endianness : Big
Muxing mode : DVD-Video
Duration : 7 s 872 ms
Bit rate mode : Constant
Bit rate : 224 kb/s
Channel(s) : 2 channels
Channel positions : Front: L R
Sampling rate : 48.0 kHz
Frame rate : 31.250 FPS (1536 SPF)
Bit depth : 16 bits
Compression mode : Lossy
Stream size : 215 KiB (3%)
Service kind : Complete Main
Text #1
ID : 189 (0xBD)-32 (0x20)
Format : RLE
Format/Info : Run-length encoding
Muxing mode : DVD-Video
Text #2
ID : 189 (0xBD)-34 (0x22)
Format : RLE
Format/Info : Run-length encoding
Muxing mode : DVD-Video
Menu
General
Complete name : J:\Music Video\DVD\Ани Лорак - DIVA\VIDEO_TS\VTS_01_0.BUP
Format : DVD Video
Format profile : Program
File size : 62.0 KiB
Duration : 1 h 41 min
Overall bit rate mode : Variable
Overall bit rate : 84 b/s
FileExtension_Invalid : ifo
Video
ID : 224 (0xE0)
Format : MPEG Video
Format version : Version 2
Duration : 1 h 41 min
Bit rate mode : Variable
Width : 720 pixels
Height : 576 pixels
Display aspect ratio : 16:9
Frame rate : 25.000 FPS
Standard : PAL
Compression mode : Lossy
Audio
ID : 128 (0x80)
Format : AC-3
Format/Info : Audio Coding 3
Duration : 1 h 41 min
Channel(s) : 2 channels
Sampling rate : 48.0 kHz
Compression mode : Lossy
Language : Russian
Menu
Duration : 1 h 41 min
00:00:00.000 : Chapter 1
00:01:14.800 : Chapter 2
00:06:20.560 : Chapter 3
00:09:41.920 : Chapter 4
00:13:44.000 : Chapter 5
00:20:54.200 : Chapter 6
00:24:43.960 : Chapter 7
00:29:46.840 : Chapter 8
00:32:57.560 : Chapter 9
00:38:30.760 : Chapter 10
00:42:25.480 : Chapter 11
00:48:20.880 : Chapter 12
00:53:58.000 : Chapter 13
01:00:29.000 : Chapter 14
01:05:23.680 : Chapter 15
01:11:03.960 : Chapter 16
01:16:34.720 : Chapter 17
01:20:04.160 : Chapter 18
01:24:47.720 : Chapter 19
01:29:13.960 : Chapter 20
01:36:00.960 : Chapter 21
01:41:19.040 : Chapter 22
List (Audio) : 0
General
Complete name : J:\Music Video\DVD\Ани Лорак - DIVA\VIDEO_TS\VTS_01_0.IFO
Format : DVD Video
Format profile : Program
File size : 62.0 KiB
Duration : 1 h 41 min
Overall bit rate mode : Variable
Overall bit rate : 84 b/s
Video
ID : 224 (0xE0)
Format : MPEG Video
Format version : Version 2
Duration : 1 h 41 min
Bit rate mode : Variable
Width : 720 pixels
Height : 576 pixels
Display aspect ratio : 16:9
Frame rate : 25.000 FPS
Standard : PAL
Compression mode : Lossy
Audio
ID : 128 (0x80)
Format : AC-3
Format/Info : Audio Coding 3
Duration : 1 h 41 min
Channel(s) : 2 channels
Sampling rate : 48.0 kHz
Compression mode : Lossy
Language : Russian
Menu
Duration : 1 h 41 min
00:00:00.000 : Chapter 1
00:01:14.800 : Chapter 2
00:06:20.560 : Chapter 3
00:09:41.920 : Chapter 4
00:13:44.000 : Chapter 5
00:20:54.200 : Chapter 6
00:24:43.960 : Chapter 7
00:29:46.840 : Chapter 8
00:32:57.560 : Chapter 9
00:38:30.760 : Chapter 10
00:42:25.480 : Chapter 11
00:48:20.880 : Chapter 12
00:53:58.000 : Chapter 13
01:00:29.000 : Chapter 14
01:05:23.680 : Chapter 15
01:11:03.960 : Chapter 16
01:16:34.720 : Chapter 17
01:20:04.160 : Chapter 18
01:24:47.720 : Chapter 19
01:29:13.960 : Chapter 20
01:36:00.960 : Chapter 21
01:41:19.040 : Chapter 22
List (Audio) : 0
General
Complete name : J:\Music Video\DVD\Ани Лорак - DIVA\VIDEO_TS\VTS_01_0.VOB
Format : MPEG-PS
File size : 2.59 MiB
Duration : 29 s 120 ms
Overall bit rate mode : Variable
Overall bit rate : 747 kb/s
Video
ID : 224 (0xE0)
Format : MPEG Video
Format version : Version 2
Format profile : Main@Main
Format settings, BVOP : No
Format settings, Matrix : Default
Duration : 40 ms
Bit rate mode : Variable
Bit rate : 540 kb/s
Maximum bit rate : 9 000 kb/s
Width : 720 pixels
Height : 576 pixels
Display aspect ratio : 16:9
Frame rate : 25.000 FPS
Standard : PAL
Color space : YUV
Chroma subsampling : 4:2:0
Bit depth : 8 bits
Scan type : Progressive
Scan order : Top Field First
Compression mode : Lossy
Bits/(Pixel*Frame) : 0.052
Stream size : 2.64 KiB (0%)
Color primaries : BT.601 PAL
Transfer characteristics : BT.470 System B, BT.470 System G
Matrix coefficients : BT.470 System B, BT.470 System G
Audio
ID : 189 (0xBD)-128 (0x80)
Format : AC-3
Format/Info : Audio Coding 3
Format settings, Endianness : Big
Muxing mode : DVD-Video
Duration : 29 s 120 ms
Bit rate mode : Constant
Bit rate : 192 kb/s
Channel(s) : 2 channels
Channel positions : Front: L R
Sampling rate : 48.0 kHz
Frame rate : 31.250 FPS (1536 SPF)
Bit depth : 16 bits
Compression mode : Lossy
Stream size : 683 KiB (26%)
Service kind : Complete Main
Text #1
ID : 189 (0xBD)-32 (0x20)
Format : RLE
Format/Info : Run-length encoding
Muxing mode : DVD-Video
Duration : 256 ms
Text #2
ID : 189 (0xBD)-34 (0x22)
Format : RLE
Format/Info : Run-length encoding
Muxing mode : DVD-Video
Duration : 256 ms
Menu
General
Complete name : J:\Music Video\DVD\Ани Лорак - DIVA\VIDEO_TS\VTS_01_1.VOB
Format : MPEG-PS
File size : 1 024 MiB
Duration : 15 min 31 s
Overall bit rate mode : Variable
Overall bit rate : 9 225 kb/s
Video
ID : 224 (0xE0)
Format : MPEG Video
Format version : Version 2
Format profile : Main@Main
Format settings, BVOP : Yes
Format settings, Matrix : Custom
Format settings, GOP : M=3, N=15
Format settings, picture structure : Frame
Duration : 15 min 31 s
Bit rate mode : Variable
Bit rate : 8 850 kb/s
Maximum bit rate : 9 000 kb/s
Width : 720 pixels
Height : 576 pixels
Display aspect ratio : 16:9
Frame rate : 25.000 FPS
Standard : PAL
Color space : YUV
Chroma subsampling : 4:2:0
Bit depth : 8 bits
Scan type : Interlaced
Scan order : Top Field First
Compression mode : Lossy
Bits/(Pixel*Frame) : 0.854
Time code of first frame : 00:00:00:00
Time code source : Group of pictures header
GOP, Open/Closed : Open
GOP, Open/Closed of first frame : Closed
Stream size : 982 MiB (96%)
Audio
ID : 189 (0xBD)-128 (0x80)
Format : AC-3
Format/Info : Audio Coding 3
Format settings, Endianness : Big
Muxing mode : DVD-Video
Duration : 15 min 30 s
Bit rate mode : Constant
Bit rate : 192 kb/s
Channel(s) : 2 channels
Channel positions : Front: L R
Sampling rate : 48.0 kHz
Frame rate : 31.250 FPS (1536 SPF)
Bit depth : 16 bits
Compression mode : Lossy
Stream size : 21.3 MiB (2%)
Service kind : Complete Main
Menu
General
Complete name : J:\Music Video\DVD\Ани Лорак - DIVA\VIDEO_TS\VTS_01_2.VOB
Format : MPEG-PS
File size : 1 024 MiB
Duration : 15 min 33 s
Overall bit rate mode : Variable
Overall bit rate : 9 202 kb/s
Video
ID : 224 (0xE0)
Format : MPEG Video
Format version : Version 2
Format profile : Main@Main
Format settings, BVOP : Yes
Format settings, Matrix : Custom
Format settings, GOP : Variable
Format settings, picture structure : Frame
Duration : 15 min 33 s
Bit rate mode : Variable
Bit rate : 8 827 kb/s
Maximum bit rate : 9 000 kb/s
Width : 720 pixels
Height : 576 pixels
Display aspect ratio : 16:9
Frame rate : 25.000 FPS
Standard : PAL
Color space : YUV
Chroma subsampling : 4:2:0
Bit depth : 8 bits
Scan type : Interlaced
Scan order : Top Field First
Compression mode : Lossy
Bits/(Pixel*Frame) : 0.851
Time code of first frame : 00:15:31:04
Time code source : Group of pictures header
Stream size : 982 MiB (96%)
Audio
ID : 189 (0xBD)-128 (0x80)
Format : AC-3
Format/Info : Audio Coding 3
Format settings, Endianness : Big
Muxing mode : DVD-Video
Duration : 15 min 33 s
Bit rate mode : Constant
Bit rate : 192 kb/s
Channel(s) : 2 channels
Channel positions : Front: L R
Sampling rate : 48.0 kHz
Frame rate : 31.250 FPS (1536 SPF)
Bit depth : 16 bits
Compression mode : Lossy
Delay relative to video : -248 ms
Stream size : 21.4 MiB (2%)
Service kind : Complete Main
Menu
General
Complete name : J:\Music Video\DVD\Ани Лорак - DIVA\VIDEO_TS\VTS_01_3.VOB
Format : MPEG-PS
File size : 1 024 MiB
Duration : 15 min 29 s
Overall bit rate mode : Variable
Overall bit rate : 9 246 kb/s
Video
ID : 224 (0xE0)
Format : MPEG Video
Format version : Version 2
Format profile : Main@Main
Format settings, BVOP : Yes
Format settings, Matrix : Custom
Format settings, GOP : Variable
Format settings, picture structure : Frame
Duration : 15 min 28 s
Bit rate mode : Variable
Bit rate : 8 870 kb/s
Maximum bit rate : 9 000 kb/s
Width : 720 pixels
Height : 576 pixels
Display aspect ratio : 16:9
Frame rate : 25.000 FPS
Standard : PAL
Color space : YUV
Chroma subsampling : 4:2:0
Bit depth : 8 bits
Scan type : Interlaced
Scan order : Top Field First
Compression mode : Lossy
Bits/(Pixel*Frame) : 0.856
Time code of first frame : 00:31:05:01
Time code source : Group of pictures header
Stream size : 982 MiB (96%)
Audio
ID : 189 (0xBD)-128 (0x80)
Format : AC-3
Format/Info : Audio Coding 3
Format settings, Endianness : Big
Muxing mode : DVD-Video
Duration : 15 min 29 s
Bit rate mode : Constant
Bit rate : 192 kb/s
Channel(s) : 2 channels
Channel positions : Front: L R
Sampling rate : 48.0 kHz
Frame rate : 31.250 FPS (1536 SPF)
Bit depth : 16 bits
Compression mode : Lossy
Delay relative to video : -736 ms
Stream size : 21.3 MiB (2%)
Service kind : Complete Main
Menu
General
Complete name : J:\Music Video\DVD\Ани Лорак - DIVA\VIDEO_TS\VTS_01_4.VOB
Format : MPEG-PS
File size : 1 024 MiB
Duration : 15 min 32 s
Overall bit rate mode : Variable
Overall bit rate : 9 215 kb/s
Video
ID : 224 (0xE0)
Format : MPEG Video
Format version : Version 2
Format profile : Main@Main
Format settings, BVOP : Yes
Format settings, Matrix : Custom
Format settings, GOP : Variable
Format settings, picture structure : Frame
Duration : 15 min 31 s
Bit rate mode : Variable
Bit rate : 8 839 kb/s
Maximum bit rate : 9 000 kb/s
Width : 720 pixels
Height : 576 pixels
Display aspect ratio : 16:9
Frame rate : 25.000 FPS
Standard : PAL
Color space : YUV
Chroma subsampling : 4:2:0
Bit depth : 8 bits
Scan type : Interlaced
Scan order : Top Field First
Compression mode : Lossy
Bits/(Pixel*Frame) : 0.853
Time code of first frame : 00:46:33:20
Time code source : Group of pictures header
Stream size : 982 MiB (96%)
Audio
ID : 189 (0xBD)-128 (0x80)
Format : AC-3
Format/Info : Audio Coding 3
Format settings, Endianness : Big
Muxing mode : DVD-Video
Duration : 15 min 32 s
Bit rate mode : Constant
Bit rate : 192 kb/s
Channel(s) : 2 channels
Channel positions : Front: L R
Sampling rate : 48.0 kHz
Frame rate : 31.250 FPS (1536 SPF)
Bit depth : 16 bits
Compression mode : Lossy
Delay relative to video : -440 ms
Stream size : 21.3 MiB (2%)
Service kind : Complete Main
Menu
General
Complete name : J:\Music Video\DVD\Ани Лорак - DIVA\VIDEO_TS\VTS_01_5.VOB
Format : MPEG-PS
File size : 1 024 MiB
Duration : 15 min 38 s
Overall bit rate mode : Variable
Overall bit rate : 9 150 kb/s
Video
ID : 224 (0xE0)
Format : MPEG Video
Format version : Version 2
Format profile : Main@Main
Format settings, BVOP : Yes
Format settings, Matrix : Custom
Format settings, GOP : Variable
Format settings, picture structure : Frame
Duration : 15 min 38 s
Bit rate mode : Variable
Bit rate : 8 776 kb/s
Maximum bit rate : 9 000 kb/s
Width : 720 pixels
Height : 576 pixels
Display aspect ratio : 16:9
Frame rate : 25.000 FPS
Standard : PAL
Color space : YUV
Chroma subsampling : 4:2:0
Bit depth : 8 bits
Scan type : Interlaced
Scan order : Top Field First
Compression mode : Lossy
Bits/(Pixel*Frame) : 0.846
Time code of first frame : 01:02:06:05
Time code source : Group of pictures header
GOP, Open/Closed : Open
Stream size : 982 MiB (96%)
Audio
ID : 189 (0xBD)-128 (0x80)
Format : AC-3
Format/Info : Audio Coding 3
Format settings, Endianness : Big
Muxing mode : DVD-Video
Duration : 15 min 38 s
Bit rate mode : Constant
Bit rate : 192 kb/s
Channel(s) : 2 channels
Channel positions : Front: L R
Sampling rate : 48.0 kHz
Frame rate : 31.250 FPS (1536 SPF)
Bit depth : 16 bits
Compression mode : Lossy
Delay relative to video : -616 ms
Stream size : 21.5 MiB (2%)
Service kind : Complete Main
Menu
General
Complete name : J:\Music Video\DVD\Ани Лорак - DIVA\VIDEO_TS\VTS_01_6.VOB
Format : MPEG-PS
File size : 1 024 MiB
Duration : 15 min 27 s
Overall bit rate mode : Variable
Overall bit rate : 9 262 kb/s
Video
ID : 224 (0xE0)
Format : MPEG Video
Format version : Version 2
Format profile : Main@Main
Format settings, BVOP : Yes
Format settings, Matrix : Custom
Format settings, GOP : Variable
Format settings, picture structure : Frame
Duration : 15 min 27 s
Bit rate mode : Variable
Bit rate : 8 886 kb/s
Maximum bit rate : 9 000 kb/s
Width : 720 pixels
Height : 576 pixels
Display aspect ratio : 16:9
Frame rate : 25.000 FPS
Standard : PAL
Color space : YUV
Chroma subsampling : 4:2:0
Bit depth : 8 bits
Scan type : Interlaced
Scan order : Top Field First
Compression mode : Lossy
Bits/(Pixel*Frame) : 0.857
Time code of first frame : 01:17:44:19
Time code source : Group of pictures header
GOP, Open/Closed : Open
Stream size : 982 MiB (96%)
Audio
ID : 189 (0xBD)-128 (0x80)
Format : AC-3
Format/Info : Audio Coding 3
Format settings, Endianness : Big
Muxing mode : DVD-Video
Duration : 15 min 27 s
Bit rate mode : Constant
Bit rate : 192 kb/s
Channel(s) : 2 channels
Channel positions : Front: L R
Sampling rate : 48.0 kHz
Frame rate : 31.250 FPS (1536 SPF)
Bit depth : 16 bits
Compression mode : Lossy
Delay relative to video : -392 ms
Stream size : 21.2 MiB (2%)
Service kind : Complete Main
Menu
General
Complete name : J:\Music Video\DVD\Ани Лорак - DIVA\VIDEO_TS\VTS_01_7.VOB
Format : MPEG-PS
File size : 534 MiB
Duration : 8 min 8 s
Overall bit rate mode : Variable
Overall bit rate : 9 172 kb/s
Video
ID : 224 (0xE0)
Format : MPEG Video
Format version : Version 2
Format profile : Main@Main
Format settings, BVOP : Yes
Format settings, Matrix : Custom
Format settings, GOP : M=3, N=15
Format settings, picture structure : Frame
Duration : 8 min 7 s
Bit rate mode : Variable
Bit rate : 8 798 kb/s
Maximum bit rate : 9 000 kb/s
Width : 720 pixels
Height : 576 pixels
Display aspect ratio : 16:9
Frame rate : 25.000 FPS
Standard : PAL
Color space : YUV
Chroma subsampling : 4:2:0
Bit depth : 8 bits
Scan type : Interlaced
Scan order : Top Field First
Compression mode : Lossy
Bits/(Pixel*Frame) : 0.849
Time code of first frame : 01:33:12:13
Time code source : Group of pictures header
GOP, Open/Closed : Open
Stream size : 512 MiB (96%)
Audio
ID : 189 (0xBD)-128 (0x80)
Format : AC-3
Format/Info : Audio Coding 3
Format settings, Endianness : Big
Muxing mode : DVD-Video
Duration : 8 min 8 s
Bit rate mode : Constant
Bit rate : 192 kb/s
Channel(s) : 2 channels
Channel positions : Front: L R
Sampling rate : 48.0 kHz
Frame rate : 31.250 FPS (1536 SPF)
Bit depth : 16 bits
Compression mode : Lossy
Delay relative to video : -696 ms
Stream size : 11.2 MiB (2%)
Service kind : Complete Main

Скриншоты меню

Скриншоты

Профиль [ЛС]
Показать сообщения:    

Текущее время: 23-Апр 04:32

Часовой пояс: UTC ± 0



Вы не можете начинать темы
Вы не можете отвечать на сообщения
Вы не можете редактировать свои сообщения
Вы не можете удалять свои сообщения
Вы не можете голосовать в опросах
Вы не можете прикреплять файлы к сообщениям
Вы не можете скачивать файлы