Статистика раздачи
Размер:  1,23 GB   |    Зарегистрирован:  8 месяцев 5 дней   |    Скачан:  0 раз

Полного источника не было: Никогда

 
     
 
 

Гость ®

Пол:
Не указан

В кукольной стране
31.03.19 торрент обновлен, оставил в раздаче только файл с фильмом
Жанр: сказка
Год выпуска: 1940
Продолжительность: 00:32:40
Режиссёр: Вячеслав Левандовский, Георгий Елизаров
В ролях: Вероника Лебедева и другие
Описание: по мотивам кукольных спектаклей Сергея Образцова. Девочка Зина и мальчик Коля плохо обращались со своими игрушками. Обиженные игрушки бежали в кукольную страну. Дети бросились в погоню. Пережив череду событий, выслушав жалобы беглецов, Зина и Коля поняли свою вину перед игрушками и помирились с ними.
Доп. информация: запись потока *.ts со спутника Экспресс АМ7, 40° в.д., ремукс в *.mkv программой VideoReDo.
Качество видео: DVB
Формат видео: MKV
Видео: MPEG2 Video, 1024(768)x576 (4:3), 25,000 кадров/сек, 5012 Кбит/сек
Аудио: MPEG Audio, 48,0 КГц, 256 Кбит/сек, 2 канала

MediaInfo

Общее
Уникальный идентификатор : 253982592930213968392006815795960672322 (0xBF1344A2B57CAA9F2F2106120C38F042)
Полное имя : D:\Torrent\В КУКОЛЬНОЙ СТРАНЕ\В КУКОЛЬНОЙ СТРАНЕ 16Х9 (Kultura 53).mkv
Формат : Matroska
Версия формата : Version 2
Размер файла : 1,23 Гбайт
Продолжительность : 32 м. 40 с.
Режим общего битрейта : Переменный
Общий поток : 5375 Кбит/сек
Программа кодирования : Lavf52.64.2
Библиотека кодирования : Lavf52.64.2
Видео
Идентификатор : 1
Формат : MPEG Video
Версия формата : Version 2
Профиль формата : Main@Main
Параметр BVOP формата : Да
Параметр матрицы формата : Выборочная
Параметр GOP формата : M=3, N=15
Структура изображения : Frame
Идентификатор кодека : V_MPEG2
Идентификатор кодека/Информация : MPEG 1 or 2 Video
Продолжительность : 32 м. 40 с.
Вид битрейта : Переменный
Битрейт : 5012 Кбит/сек
Максимальный битрейт : 15,0 Мбит/сек
Ширина : 720 пикселей
Высота : 576 пикселей
Соотношение сторон : 16:9
Соотношение сторон в оригинале : 16:9
Режим частоты кадров : Постоянный
Частота кадров : 25,000 кадров/сек
Стандарт вещания : PAL
Цветовое пространство : YUV
Субдискретизация насыщенности : 4:2:0
Битовая глубина : 8 бит
Тип развёртки : Чересстрочная
Порядок развёртки : Верхнее поле первое
Метод сжатия : С потерями
Бит/(Пиксели*Кадры) : 0.483
Размер потока : 1,14 Гбайт (93%)
Default : Да
Forced : Нет
Аудио
Идентификатор : 2
Формат : MPEG Audio
Версия формата : Version 1
Профиль формата : Layer 2
Идентификатор кодека : A_MPEG/L2
Идентификатор кодека/Подсказка : MP2
Продолжительность : 32 м. 40 с.
Вид битрейта : Постоянный
Битрейт : 256 Кбит/сек
Каналы : 2 канала
Частота : 48,0 КГц
Метод сжатия : С потерями
Задержка видео : 22 мс.
Размер потока : 59,8 Мбайт (5%)
Язык : English
Default : Да
Forced : Нет

Скриншоты

[cybertorrent.net].t1634.torrent 
Торрент: Зарегистрирован [ 2019-03-31 15:52 ] · EE362D6D95DCE84BC9C6273A5FD8A14306EDD3BE

Скачать .torrent

Скачать

13 KB

Статус: проверено
Скачан: 0 раз
Размер: 1,23 GB
terms.php
Показать сообщения:    

Текущее время: 05-Дек 15:55

Часовой пояс: UTC ± 0



Вы не можете начинать темы
Вы не можете отвечать на сообщения
Вы не можете редактировать свои сообщения
Вы не можете удалять свои сообщения
Вы не можете голосовать в опросах
Вы не можете прикреплять файлы к сообщениям
Вы можете скачивать файлы