Статистика раздачи
Размер:  6,52 GB   |    Зарегистрирован:  7 месяцев 12 дней   |    Скачан:  0 раз

Полного источника не было: Никогда

 
     
 
 

Гость ®

Пол:
Не указан

Ривердэйл / Riverdale
Год выпуска: 2018
Страна: США
Жанр: Драма, мелодрама, криминал, детектив
Продолжительность: ~00:43:00
Перевод: Профессиональный (двухголосый закадровый) Gears Media
Режиссёр: Ли Толанд Кригер, Кевин Родни Салливан, Доун Уилкинсон
В ролях: Кей-Джей Апа, Лили Рейнхарт, Камила Мендес, Коул Спроус, Мэделин Петш, Эшли Мюррэй, Мэдхен Амик, Люк Перри, Марисоль Николс, Росс Батлер, Кейси Котт, Коуди Кирсли, Сара Хабель, Айри Хайлеу, Локлин Манро, Ашанти Бромфилд, Оливия Райан Штерн, Кэйтлин Митчелл-Маркович, Мейджор Курда, Робин Гивенс, Тревор Стайнс, Натали Болтт, Барклей Хоуп, Тиера Сковбай, Колин Лоуренс, Джордан Кэллоуэй, Элвин Сандерс, Том Макбет, Адайн Брэдли, Шеннон Пёрсер, Скит Ульрих, Роб Рако, Рауль Кастильо, Молли Рингуолд и др.
Описание:Сериал расскажет о жизни и приключениях жизнерадостного и никогда не унывающего подростка Арчи Эндрюса, а также Бэтти Купер, Вероники Лодж и их друзей из Ривердейла. Действие разворачивается в современном мире, а главные герои решают исследовать сокрытую от посторонних сторону жизни маленького мирного городка со всеми его странностями и тёмными тайнами, прячущимися за праздничным фасадом.
Ссылка на предыдущие и альтернативные раздачи: http://cybertorrent.ru/forum/tracker.php?nm=Riverdale
Сэмпл: http://multi-up.com/1213726
Качество: WEBRip
Формат: AVI
Видео: XviD, 720x400 at 23.976 fps, ~1500 kbps avg
Аудио1: Russian, MP3, 48 kHz, 2 ch, 128 kbps
Аудио2: English, MP3, 44.1 kHz, 2 ch, 128 kbps
Субтитры: нет
Реклама: аудио (два раза, в начале и конце, по 12 сек.)

MediaInfo

Format : AVI
Format/Info : Audio Video Interleave
File size : 536 MiB
Duration : 42 min 28 s
Overall bit rate : 1 763 kb/s
Writing application : Lavf57.71.100
Video
ID : 0
Format : MPEG-4 Visual
Format profile : Advanced Simple@L5
Format settings : BVOP1
Format settings, BVOP : 1
Format settings, QPel : No
Format settings, GMC : No warppoints
Format settings, Matrix : Default (H.263)
Codec ID : XVID
Codec ID/Hint : XviD
Duration : 42 min 28 s
Bit rate : 1 487 kb/s
Width : 720 pixels
Height : 400 pixels
Display aspect ratio : 16:9
Frame rate : 23.976 (24000/1001) FPS
Color space : YUV
Chroma subsampling : 4:2:0
Bit depth : 8 bits
Scan type : Progressive
Compression mode : Lossy
Bits/(Pixel*Frame) : 0.215
Stream size : 452 MiB (84%)
Writing library : XviD 67
Audio #1
ID : 1
Format : MPEG Audio
Format version : Version 1
Format profile : Layer 3
Format settings : Joint stereo / MS Stereo
Codec ID : 55
Codec ID/Hint : MP3
Duration : 42 min 28 s
Bit rate mode : Constant
Bit rate : 128 kb/s
Channel(s) : 2 channels
Sampling rate : 48.0 kHz
Compression mode : Lossy
Stream size : 38.9 MiB (7%)
Alignment : Aligned on interleaves
Interleave, duration : 24 ms (0.58 video frame)
Title : Gears Media
Writing library : LAME3.100
Audio #2
ID : 2
Format : MPEG Audio
Format version : Version 1
Format profile : Layer 3
Format settings : Joint stereo / MS Stereo
Codec ID : 55
Codec ID/Hint : MP3
Duration : 42 min 28 s
Bit rate mode : Constant
Bit rate : 128 kb/s
Channel(s) : 2 channels
Sampling rate : 44.1 kHz
Compression mode : Lossy
Stream size : 38.9 MiB (7%)
Alignment : Aligned on interleaves
Interleave, duration : 26 ms (0.63 video frame)
Writing library : LAME3.100

Скриншоты

Внимание! Раздача ведётся путём добавления новых серий

Внимание! Раздача ведётся путём добавления новых серий; при каждом добавлении создаётся новый торрент. Чтобы начать докачку новой серии, пользователям необходимо сделать следующее:
(1) остановить скачивание,
(2) удалить старый торрент у себя из клиента (старые серии удалять не надо),
(3) скачать новый торрент и запустить его у себя в клиенте вместо старого, при этом указать клиенту путь в старую папку куда и должно происходить скачивание новых серий.
Ваш клиент при этом должен произвести хеширование (проверку) старой папки (если не производит сам - помогите ему сделать это), и будет докачивать только те серии которых у вас ещё нет. Старые серии при этом не удаляются, а продолжают раздаваться!
Eсли вы уже удалили старые серии, то предотвратить повторную закачку старых серий можно, отжав галочку в соответствующих местах при запуске нового торрента. По возможности, желательно не удалять старые серии как можно дольше чтобы релизёр не столько продолжал раздавать старые серии, а смог сконцентрироваться на новых.
[cybertorrent.net].t1630.torrent 
Торрент: Зарегистрирован [ 2019-03-31 15:52 ] · 31EC988E46C834ACCD94DF2D5667D32AFF0F094B

Скачать .torrent

Скачать

34 KB

Статус: проверено
Скачан: 0 раз
Размер: 6,52 GB
terms.php
Показать сообщения:    

Текущее время: 13-Ноя 00:04

Часовой пояс: UTC ± 0



Вы не можете начинать темы
Вы не можете отвечать на сообщения
Вы не можете редактировать свои сообщения
Вы не можете удалять свои сообщения
Вы не можете голосовать в опросах
Вы не можете прикреплять файлы к сообщениям
Вы можете скачивать файлы