Статистика раздачи
Размер:  618 MB   |    Зарегистрирован:  8 месяцев 15 дней   |    Скачан:  0 раз

Полного источника не было: Никогда

 
     
 
 

Гость ®

Пол:
Не указан

Хэппи / Happy!- Год выпуска: 2019
Страна: США
Жанр: Комедия, фэнтези, криминал, триллер, детектив
Продолжительность: 00:48:27-Перевод: Профессиональный (многоголосый закадровый) - LostFilm-Режиссёр: Брайан Тейлор, Дэвид Петрарка-В ролях: Кристофер Мелони, Рен Колли, Александр Джеймисон, Брайс Лоренцо, Майкл Мейзе, Лили Мирожник, Скотт Барик, Бен Коул, Данте Перейра-Олсон, Маттиас Себастьан Гарри-Описание: Продолжение безбашенных приключений бывшего полицейского Ника Сакса и его неразлучного друга - веселого голубого крылатого коня.- -Качество: WEBRip
Формат: AVI
Видео: 720x400 (16:9), 23.976 fps, XviD, 1513 Kbps, 0.21 bit/pixel
Аудио 1: MP3, 48 kHz, 2 ch, 128 kbps, CBR - Rus
Аудио 2: MP3, 48 kHz, 2 ch, 128 kbps, CBR - Eng
Субтитры: Отсутствуют-Реклама: Отсутствует-Предыдущие и альтернативные раздачи-

Список серий

01. The War on Easter / Война на Пасху

Релиз

Rip by DriverV / NNM-Club
Примечание: Без заставки и логотипа LostFilm.

MediaInfo

General
Complete name : Downloads\Хэппи (сезон 2) Happy! (2019) WEBRip - LostFilm
Format : AVI
Format/Info : Audio Video Interleave
File size : 618 MiB
Duration : 48mn 27s
Overall bit rate : 1 783 Kbps
Writing application : VirtualDubModRus 1.5.10.2 (build 2542/release)
Writing library : VirtualDubMod build 2542/release
Video #0
ID : 0
Format : MPEG-4 Visual
Format profile : Advanced Simple@L5
Format settings, BVOP : 2
Format settings, QPel : No
Format settings, GMC : No warppoints
Format settings, Matrix : Default (H.263)
Codec ID : XVID
Codec ID/Hint : XviD
Duration : 48mn 27s
Bit rate : 1 513 Kbps
Width : 720 pixels
Height : 400 pixels
Display aspect ratio : 16:9
Frame rate : 23.976 fps
Color space : YUV
Chroma subsampling : 4:2:0
Bit depth : 8 bits
Scan type : Progressive
Compression mode : Lossy
Bits/(Pixel*Frame) : 0.219
Stream size : 524 MiB (85%)
Writing library : XviD 67
Audio #1
ID : 1
Format : MPEG Audio
Format version : Version 1
Format profile : Layer 3
Mode : Joint stereo
Mode extension : MS Stereo
Codec ID : 55
Codec ID/Hint : MP3
Duration : 48mn 27s
Bit rate mode : Constant
Bit rate : 128 Kbps
Channel(s) : 2 channels
Sampling rate : 48.0 KHz
Compression mode : Lossy
Stream size : 44.4 MiB (7%)
Alignment : Aligned on interleaves
Interleave, duration : 42 ms (1.00 video frame)
Interleave, preload duration : 504 ms
Audio #2
ID : 2
Format : MPEG Audio
Format version : Version 1
Format profile : Layer 3
Mode : Joint stereo
Mode extension : MS Stereo
Codec ID : 55
Codec ID/Hint : MP3
Duration : 48mn 27s
Bit rate mode : Constant
Bit rate : 128 Kbps
Channel(s) : 2 channels
Sampling rate : 48.0 KHz
Compression mode : Lossy
Stream size : 44.4 MiB (7%)
Alignment : Aligned on interleaves
Interleave, duration : 42 ms (1.00 video frame)
Interleave, preload duration : 504 ms

Скриншоты

Внимание! Раздача ведётся путём добавления новых серий:

(1) остановить скачивание,
(2) удалить старый торрент у себя из клиента (старые серии удалять не надо),
(3) скачать новый торрент и запустить его у себя в клиенте вместо старого, при этом указать клиенту путь в старую папку куда и должно происходить скачивание новых серий.
Ваш клиент при этом должен произвести хеширование (проверку) старой папки (если не производит сам - помогите ему сделать это), и будет докачивать только те серии которых у вас ещё нет. Старые серии при этом не удаляются, а продолжают раздаваться!
Eсли вы уже удалили старые серии, то предотвратить повторную закачку старых серий можно, отжав галочку в соответсвующих местах при запуске нового торрента. По возможности, желательно не удалять старые серии как можно дольше чтобы релизёр не столько продолжал раздавать старые серии, а смог сконцентрироваться на новых
.
[cybertorrent.net].t1621.torrent 
Торрент: Зарегистрирован [ 2019-03-30 15:36 ] · 81FF1BB88B38FE1167375E71BAFF56B8A1349BCE

Скачать .torrent

Скачать

13 KB

Статус: проверено
Скачан: 0 раз
Размер: 618 MB
terms.php
Показать сообщения:    

Текущее время: 15-Дек 11:42

Часовой пояс: UTC ± 0



Вы не можете начинать темы
Вы не можете отвечать на сообщения
Вы не можете редактировать свои сообщения
Вы не можете удалять свои сообщения
Вы не можете голосовать в опросах
Вы не можете прикреплять файлы к сообщениям
Вы можете скачивать файлы