Статистика раздачи
Размер:  1,36 GB   |    Зарегистрирован:  6 месяцев 19 дней   |    Скачан:  0 раз

Полного источника не было: Никогда

   
 

Гость ®

Пол:
Не указан

Казённый дом
Жанр: социальная драма
Год выпуска: 1989
Продолжительность: 01:27:26
Режиссёр: Альберт С.Мкртчян
В ролях: Галина Польских, Нина Русланова, Владимир Ильин, Юля Жукова, Алеша Сергиевский, Алеша Колесов, Паша Гайдученко, Тамара Семина, Владимир Трещалов, Юрий Катин-Ярцев, Герман Качин, Татьяна Кречетова, Елена Королева, Фред Ннко, Оля Нуждина
Описание: Действие происходит во внешне благополучном детском доме. Однако, не всё так хорошо, как кажется.
Мальчики занимаются хулиганством и токсикоманией, а девочки – проституцией. Во время одного из «нюхательных сеансов» один из подростков задохнулся. Остальные трое побоялись огласки и решили спрятать труп, забросав его мусором. Руководство всё-таки узнаёт правду, но, стремясь не нарушить имидж образцового детского дома, решает замять дело…
Доп. информация: Оцифровка лицензионной VHS (личный архив) и получение VHSRip alenavova
Эксклюзив для rutracker.org. При размещении данного релиза на других сайтах ссылка на автора alenavova обязательна.
Релиз
Семпл: https://yadi.sk/i/mSEPPhsRVwC2tg
Качество видео: VHSRip
Формат видео: AVI
Видео: 704x528 (1.33:1), 25 fps, XviD build 73 ~2031 kbps avg, 0.22 bit/pixel
Аудио: 48 kHz, AC3 Dolby Digital, 2/0 (L,R) ch, ~192 kbps

MediaInfo

Казенный дом [by alenavova].avi
Format : AVI
Format/Info : Audio Video Interleave
File size : 1.36 GiB
Duration : 1 h 27 min
Overall bit rate : 2 233 kb/s
Movie name : Казенный дом [by alenavova]
Director : by alenavova
Writing application : VirtualDubMod 1.5.10.3 | www.virtualdub-fr.org || (build 2550/release)
Copyright : Edich2
Comment : RuTracker.org
Video
ID : 0
Format : MPEG-4 Visual
Format profile : Advanced Simple@L5
Format settings : BVOP1 / Custom Matrix
Format settings, BVOP : 1
Format settings, QPel : No
Format settings, GMC : No warppoints
Format settings, Matrix : Custom
Codec ID : XVID
Codec ID/Hint : XviD
Duration : 1 h 27 min
Bit rate : 2 031 kb/s
Width : 704 pixels
Height : 528 pixels
Display aspect ratio : 4:3
Frame rate : 25.000 FPS
Color space : YUV
Chroma subsampling : 4:2:0
Bit depth : 8 bits
Scan type : Progressive
Compression mode : Lossy
Bits/(Pixel*Frame) : 0.219
Stream size : 1.24 GiB (91%)
Writing library : XviD 73
Audio
ID : 1
Format : AC-3
Format/Info : Audio Coding 3
Codec ID : 2000
Duration : 1 h 27 min
Bit rate mode : Constant
Bit rate : 192 kb/s
Channel(s) : 2 channels
Channel positions : Front: L R
Sampling rate : 48.0 kHz
Frame rate : 31.250 FPS (1536 SPF)
Bit depth : 16 bits
Compression mode : Lossy
Stream size : 120 MiB (9%)
Alignment : Split accross interleaves
Interleave, duration : 40 ms (1.00 video frame)
Interleave, preload duratio : 500 ms
Service kind : Complete Main

Скриншоты


[cybertorrent.net].t1609.torrent 
Торрент: Зарегистрирован [ 2019-03-30 15:36 ] · D1502F41B497EE5A69C28E0346C2217D6C94FB1A

Скачать .torrent

Скачать

14 KB

Статус: проверено
Скачан: 0 раз
Размер: 1,36 GB
terms.php
Показать сообщения:    

Текущее время: 19-Окт 09:55

Часовой пояс: UTC ± 0



Вы не можете начинать темы
Вы не можете отвечать на сообщения
Вы не можете редактировать свои сообщения
Вы не можете удалять свои сообщения
Вы не можете голосовать в опросах
Вы не можете прикреплять файлы к сообщениям
Вы можете скачивать файлы