Статистика раздачи
Размер:  124 MB   |    Зарегистрирован:  6 месяцев 26 дней   |    Скачан:  0 раз

Полного источника не было: Никогда

   
 

Гость ®

Пол:
Не указан

Про кошку, которая упала с неба / Про кішку, яка упала з неба
Страна: Украина
Жанр: мультфильм
Продолжительность: 00:08:36
Год выпуска: 2005
Перевод: субтитры (alex.n42)
Русские субтитры: есть
Режиссёр: Наталья Марченкова
Композитор: Александр Спаринский
Описание: Шуточный музыкальный мультфильм про кошку, которая однажды пошла за молоком, а вместо этого... улетела в Египет.
Качество: WEBRip
Формат: AVI
Видео: 1870 kbps, 608х464 (4:3), 25.000 fps, MPEG-4 Visual (XviD)
Аудио: ukr, 128 kbps, 44.1 kHz, 2 channels, MPEG Audio (MP3)
Субтитры: softsub (SRT)

Подробные технические данные

General
Complete name : Про кішку, яка упала з неба (2005).avi
Format : AVI
Format/Info : Audio Video Interleave
File size : 124 MiB
Duration : 8mn 36s
Overall bit rate : 2 011 Kbps
Writing application : Lavf57.25.100
Writing library : VirtualDub build 35491/release
Video
ID : 0
Format : MPEG-4 Visual
Format profile : Advanced Simple@L4
Format settings, BVOP : 2
Format settings, QPel : No
Format settings, GMC : No warppoints
Format settings, Matrix : Default (H.263)
Codec ID : XVID
Codec ID/Hint : XviD
Duration : 8mn 36s
Bit rate : 1 870 Kbps
Width : 608 pixels
Height : 464 pixels
Display aspect ratio : 4:3
Frame rate : 25.000 fps
Color space : YUV
Chroma subsampling : 4:2:0
Bit depth : 8 bits
Scan type : Progressive
Compression mode : Lossy
Bits/(Pixel*Frame) : 0.265
Stream size : 115 MiB (93%)
Writing library : XviD 73
Audio
ID : 1
Format : MPEG Audio
Format version : Version 1
Format profile : Layer 3
Codec ID : 55
Codec ID/Hint : MP3
Duration : 8mn 36s
Bit rate mode : Constant
Bit rate : 128 Kbps
Channel(s) : 2 channels
Sampling rate : 44.1 KHz
Compression mode : Lossy
Stream size : 7.89 MiB (6%)
Alignment : Aligned on interleaves
Interleave, duration : 26 ms (0.65 video frame)
Interleave, preload duration : 522 ms

Скриншоты

[cybertorrent.net].t160.torrent 
Торрент: Зарегистрирован [ 2019-03-18 10:04 ] · 25926450916A9737268809C526BF51C374596711

Скачать .torrent

Скачать

20 KB

Статус: проверено
Скачан: 0 раз
Размер: 124 MB
terms.php
Показать сообщения:    

Текущее время: 13-Окт 22:38

Часовой пояс: UTC ± 0



Вы не можете начинать темы
Вы не можете отвечать на сообщения
Вы не можете редактировать свои сообщения
Вы не можете удалять свои сообщения
Вы не можете голосовать в опросах
Вы не можете прикреплять файлы к сообщениям
Вы можете скачивать файлы