Статистика раздачи
Размер:  1,45 GB   |    Зарегистрирован:  8 месяцев 10 дней   |    Скачан:  0 раз
Сидов:  5  [  0 KB/s  ]   Личеров:  1  [  0 KB/s  ]  
 
     
 
 

Гость ®

Пол:
Не указан

Тихие троечники
Жанр: Детский, приключения
Год выпуска: 1980
Продолжительность: 02:10:20
Режиссёр: Вячеслав Никифоров
В ролях: Дима Андриевский, Сережа Скрибо, Лена Антонюк, Валентин Юцкевич, Александр Березень, Марина Левтова, Евгения Ханаева, Елена Драпеко, Дальвин Щербаков, Ольга Остроумова, Альберт Филозов, Иван Рыжов, Виктор Мирошниченко, Таисия Литвиненко, Борис Черкасов, Лена Шабалина, Лена Будинас, Костя Михайлов
Описание: Фильм рассказывает о веселых приключениях двух мальчишек-троечников, Вовки и Валерки, которые, увлекшись поисками подземной речки, пришли к выводу, что без знаний их усилия не могут увенчаться успехом...
Сэмпл: http://multi-up.com/1074399
Кинопоиск: https://www.kinopoisk.ru/film/420999/
Исходник: http://cybertorrent.ru/forum/viewtopic.php?t=4444000
Формат видео: AVI
Качество видео: SATRip (DVB)
Видео: XviD, 720х528, 25fps, 1456kbps
Аудио: MPEG Layer 3, 2ch, 48000Hz, 128kbps

MediaInfo

Общее
Полное имя : Tihie.Troechniki.1980.O.SATRip.1400.CurHaJI.avi
Формат : AVI
Формат/Информация : Audio Video Interleave
Размер файла : 1,45 Гбайт
Продолжительность : 2 ч. 10 м.
Общий поток : 1593 Кбит/сек
Название фильма : Tihie.Troechniki.1980.O.SATRip.1400.CurHaJI
Программа кодирования : VirtualDubMod 1.5.10.3 | www.virtualdub-fr.org || (build 2550/release)
Библиотека кодирования : VirtualDub build 35491/release
Видео
Идентификатор : 0
Формат : MPEG-4 Visual
Профиль формата : Advanced Simple@L5
Параметр BVOP формата : 1
Параметр QPel формата : Нет
Параметр GMC формата : Без точки перехода
Параметр матрицы формата : Выборочная
Идентификатор кодека : XVID
Идентификатор кодека/Подсказка : XviD
Продолжительность : 2 ч. 10 м.
Битрейт : 1456 Кбит/сек
Ширина : 720 пикселей
Высота : 528 пикселей
Соотношение сторон : 4:3
Частота кадров : 25,000 кадров/сек
Цветовое пространство : YUV
Субдискретизация насыщенности : 4:2:0
Битовая глубина : 8 бит
Тип развёртки : Прогрессивная
Метод сжатия : С потерями
Бит/(Пиксели*Кадры) : 0.153
Размер потока : 1,33 Гбайт (91%)
Библиотека кодирования : XviD 73
Аудио
Идентификатор : 1
Формат : MPEG Audio
Версия формата : Version 1
Профиль формата : Layer 3
Идентификатор кодека : 55
Идентификатор кодека/Подсказка : MP3
Продолжительность : 2 ч. 10 м.
Вид битрейта : Постоянный
Битрейт : 128 Кбит/сек
Каналы : 2 канала
Частота : 48,0 КГц
Метод сжатия : С потерями
Размер потока : 119 Мбайт (8%)
Выравнивание : Соединение по промежуткам
Продолжительность промежутка : 40 мс. (1,00 видеокадр)
Время предзагрузки промежутка : 504 мс.
Библиотека кодирования : LAME3.99r
Настройки программы : -m s -V 4 -q 2 -lowpass 17 -b 128

Скриншоты

[cybertorrent.net].t1583.torrent 
Торрент: Зарегистрирован [ 2019-03-30 15:36 ] · 3E15ACE6A6FDD864CEB00569B3373E52094A11A9

Скачать .torrent

Скачать

15 KB

Статус: проверено
Скачан: 0 раз
Размер: 1,45 GB
terms.php
Показать сообщения:    

Текущее время: 10-Дек 09:14

Часовой пояс: UTC ± 0



Вы не можете начинать темы
Вы не можете отвечать на сообщения
Вы не можете редактировать свои сообщения
Вы не можете удалять свои сообщения
Вы не можете голосовать в опросах
Вы не можете прикреплять файлы к сообщениям
Вы можете скачивать файлы