Статистика раздачи
Размер:  2,18 GB   |    Зарегистрирован:  7 месяцев 22 дня   |    Скачан:  0 раз

Полного источника не было: Никогда

 
     
 
 

солнышко ®

Пол:
Не указан
Стаж:
8 месяцев 9 дней
Сообщений:
565

Ван Гог. На пороге вечности / At Eternity's Gate
Год выхода: 2018
Страна: Швейцария, Ирландия, Великобритания, Франция, США
Жанр: драма, биография
Продолжительность: 01:51:16-Перевод: Профессиональный (дублированный) | iTunes
Субтитры: русские, английские (full, hardsub)
Оригинальная аудиодорожка: английский-Режиссер: Джулиан Шнабель / Julian Schnabel-В ролях: Уиллем Дефо, Мадс Миккельсен, Оскар Айзек, Матьё Амальрик, Руперт Френд, Эмманюэль Сенье, Нильс Ареструп, Анн Косиньи, Амира Касар, Венсан Перес-О фильме: Винсент Ван Гог был одержим живописью и мечтал изменить мир. Он жил в Париже на Монмартре и водил дружбу с Полем Гогеном. Из спиртного отдавал предпочтение абсенту, а если уж влюблялся, то со всей страстью. В то время его холсты почти не продавались, а сегодня — одни из самых дорогих в мире. Как истинный гений, он всегда находился на пороге вечности…- -Качество: BDRip | At.Eternitys.Gate.2018.REMUX.1080p.BluRay.AVC.DTS-HD.MA5.1-iFT
Формат: AVI
Видео: 720x304 (2.35:1), 23.976 fps, XviD build 73 ~2027 kbps avg, 0.39 bit/pixel
Аудио 1: 48 kHz, AC3 Dolby Digital, 3/2 (L,C,R,l,r) + LFE ch, ~384 kbps | русский
Аудио 2: 48 kHz, AC3 Dolby Digital, 3/2 (L,C,R,l,r) + LFE ch, ~384 kbps | английский-[box]Сэмпл[/box]-

MediaInfo

Код:Формат : AVI
Формат/Информация : Audio Video Interleave
Профиль формата : OpenDML
Размер файла : 2,18 Гбайт
Продолжительность : 1 ч. 51 м.
Общий поток : 2802 Кбит/сек
Программа кодирования : VirtualDubMod 1.5.10.3 | www.virtualdub-fr.org || (build 2550/release)
Библиотека кодирования : VirtualDubMod build 2550/release
Видео
Идентификатор : 0
Формат : MPEG-4 Visual
Профиль формата : Advanced Simple@L5
Настройки формата : BVOP1 / Custom Matrix
Параметр BVOP формата : 1
Параметр QPel формата : Нет
Параметр GMC формата : Без точки перехода
Параметр матрицы формата : Выборочная
Идентификатор кодека : XVID
Идентификатор кодека/Подсказка : XviD
Продолжительность : 1 ч. 51 м.
Битрейт : 2017 Кбит/сек
Ширина : 720 пикселей
Высота : 304 пикселя
Соотношение сторон : 2,35:1
Частота кадров : 23,976 (24000/1001) кадра/сек
Цветовое пространство : YUV
Субдискретизация насыщенности : 4:2:0
Битовая глубина : 8 бит
Тип развёртки : Прогрессивная
Метод сжатия : С потерями
Бит/(Пиксели*Кадры) : 0.384
Размер потока : 1,57 Гбайт (72%)
Библиотека кодирования : XviD 73
Аудио #1
Идентификатор : 1
Формат : AC-3
Формат/Информация : Audio Coding 3
Коммерческое название : Dolby Digital
Идентификатор кодека : 2000
Продолжительность : 1 ч. 51 м.
Вид битрейта : Постоянный
Битрейт : 384 Кбит/сек
Каналы : 6 каналов
Channel layout : L R C LFE Ls Rs
Частота : 48,0 КГц
Частота кадров : 31,250 кадров/сек (1536 SPF)
Битовая глубина : 16 бит
Метод сжатия : С потерями
Размер потока : 306 Мбайт (14%)
Выравнивание : Разделение по промежуткам
Продолжительность промежутка : 42 мс. (1,00 видеокадр)
Время предзагрузки промежутка : 500 мс.
Заголовок : Russian
ServiceKind/String : Complete Main
Аудио #2
Идентификатор : 2
Формат : AC-3
Формат/Информация : Audio Coding 3
Коммерческое название : Dolby Digital
Идентификатор кодека : 2000
Продолжительность : 1 ч. 51 м.
Вид битрейта : Постоянный
Битрейт : 384 Кбит/сек
Каналы : 6 каналов
Channel layout : L R C LFE Ls Rs
Частота : 48,0 КГц
Частота кадров : 31,250 кадров/сек (1536 SPF)
Битовая глубина : 16 бит
Метод сжатия : С потерями
Размер потока : 306 Мбайт (14%)
Выравнивание : Разделение по промежуткам
Продолжительность промежутка : 42 мс. (1,00 видеокадр)
Время предзагрузки промежутка : 500 мс.
Заголовок : English
ServiceKind/String : Complete Main

Скриншоты


Перезалито на iTunes.
[cybertorrent.net].t1581.torrent 
Торрент: Зарегистрирован [ 2019-03-30 15:36 ] · 9660A4A44072649273C2BD333EAD48851D6540BA

Скачать .torrent

Скачать

12 KB

Статус: проверено
Скачан: 0 раз
Размер: 2,18 GB
terms.php
Профиль [ЛС]
Показать сообщения:    

Текущее время: 22-Ноя 05:29

Часовой пояс: UTC ± 0



Вы не можете начинать темы
Вы не можете отвечать на сообщения
Вы не можете редактировать свои сообщения
Вы не можете удалять свои сообщения
Вы не можете голосовать в опросах
Вы не можете прикреплять файлы к сообщениям
Вы можете скачивать файлы