Статистика раздачи
Размер:  2,99 GB   |    Зарегистрирован:  8 месяцев 13 дней   |    Скачан:  0 раз

Полного источника не было: Никогда

 
     
 
 

солнышко ®

Пол:
Не указан
Стаж:
8 месяцев 30 дней
Сообщений:
565

Бамблби / Bumblebee
«У каждого приключения есть начало»
- Год выхода: 2018
Страна: США
Производство: Paramount Pictures, Di Bonaventura Pictures
Жанр: фантастика, боевик, приключения
Продолжительность: 01:53:53
Перевод (1): Профессиональный (полное дублирование) BD EUR |Студия "Пифагор"|
Перевод (2): Профессиональный (многоголосый закадровый) СВ Студия
Субтитры: Русские (форс., полные), Английские (полные, SDH)
Оригинальная аудиодорожка: Английская
Навигация по главам: Есть (22 главы)-Режиссер:
Трэвис Найт / Travis Knight-В ролях:
Дилан О’Брайен (Bumblebee, озвучка), Хейли Стайнфелд (Charlie), Хорхе Лендеборг мл. (Memo), Джон Сина (Agent Burns), Джейсон Йен Дракер (Otis), Памела Адлон (Sally), Стивен Шнайдер (Ron), Рикардо Хойос (Tripp), Джон Ортис (Dr. Powell), Глинн Тёрмен (General Whalen)-Описание:
1987 год. Скрываясь от преследования, Бамблби находит убежище на автомобильной свалке в калифорнийском городке, где живет Чарли. Девушке скоро исполнится 18, она стремится найти свое место в жизни. И именно она наталкивается на покореженного и сломленного Бамблби. Приведя его в чувство, Чарли моментально осознает: на ее пути оказался не простой желтый Фольксваген Жук…-Релиз групп | | IMDB | КиноПоиск | Сэмпл |-Качество: BDRip-AVC [Bumblebee.2018.BluRay.1080p.AVC.Atmos.TrueHD7.1-CHDBits]
Формат: MKV
Видео: 1152x648 (16:9), 23.976 fps, x264 ~2599 kbps avg, 0.145 bit/pixel
Аудио #1: 48 kHz, AC3 Dolby Digital, 3/2 (L,C,R,l,r) + LFE ch, ~448 kbps (RUS) - Студия "Пифагор"
Аудио #2: 48 kHz, AC3 Dolby Digital, 2/0 (L,R) ch, ~192 kbps avg (RUS) - СВ Студия
Аудио #3: 48 kHz, AC3 Dolby Digital, 3/2 (L,C,R,l,r) + LFE ch, ~448 kbps (ENG)
Формат субтитров: Softsub (.srt*)-

Скриншоты

-

MediaInfo

Код:Полное имя : D:\Bumblebee_2018_BDRip-AVC_by_Dalemake.mkv
Формат : Matroska
Версия формата : Version 4 / Version 2
Размер файла : 2,99 Гбайт
Продолжительность : 1 ч. 53 м.
Общий поток : 3762 Кбит/сек
Название фильма : [Bumblebee_2018_All Films_Rutracker.org_by Dalemake]
Дата кодирования : UTC 2019-03-29 07:06:41
Программа кодирования : mkvmerge v6.1.0 ('Old Devil') built on Mar 4 2013 09:10:42
Библиотека кодирования : libebml v1.3.0 + libmatroska v1.4.0
Видео
Идентификатор : 1
Формат : AVC
Формат/Информация : Advanced Video Codec
Профиль формата : High@L4.1
Параметр CABAC формата : Да
Параметр ReFrames формата : 13 кадров
Идентификатор кодека : V_MPEG4/ISO/AVC
Продолжительность : 1 ч. 53 м.
Битрейт : 2599 Кбит/сек
Ширина : 1152 пикселя
Высота : 648 пикселей
Соотношение сторон : 16:9
Режим частоты кадров : Постоянный
Частота кадров : 23,976 кадра/сек
Цветовое пространство : YUV
Субдискретизация насыщенности : 4:2:0
Битовая глубина : 8 бит
Тип развёртки : Прогрессивная
Бит/(Пиксели*Кадры) : 0.145
Размер потока : 2,07 Гбайт (69%)
Заголовок : [Bumblebee_2018_All Films_Rutracker.org_by Dalemake]
Библиотека кодирования : x264 core 157 r2935 545de2f
Настройки программы : cabac=1 / ref=13 / deblock=1:-3:-2 / analyse=0x3:0x133 / me=umh / subme=10 / psy=1 / psy_rd=1.00:0.00 / mixed_ref=1 / me_range=24 / chroma_me=1 / trellis=2 / 8x8dct=1 / cqm=0 / deadzone=21,11 / fast_pskip=1 / chroma_qp_offset=-4 / threads=6 / lookahead_threads=1 / sliced_threads=0 / nr=0 / decimate=0 / interlaced=0 / bluray_compat=0 / constrained_intra=0 / bframes=14 / b_pyramid=2 / b_adapt=2 / b_bias=0 / direct=1 / weightb=1 / open_gop=0 / weightp=2 / keyint=240 / keyint_min=23 / scenecut=40 / intra_refresh=0 / rc_lookahead=60 / rc=crf / mbtree=0 / crf=20.0 / qcomp=0.60 / qpmin=0 / qpmax=69 / qpstep=4 / vbv_maxrate=50000 / vbv_bufsize=62500 / crf_max=0.0 / nal_hrd=none / filler=0 / ip_ratio=1.40 / pb_ratio=1.35 / aq=1:1.00
Язык : English
Default : Да
Forced : Нет
Аудио #1
Идентификатор : 2
Формат : AC-3
Формат/Информация : Audio Coding 3
Расширение режима : CM (complete main)
Параметр Endianness формата : Big
Идентификатор кодека : A_AC3
Продолжительность : 1 ч. 53 м.
Вид битрейта : Постоянный
Битрейт : 448 Кбит/сек
Каналы : 6 каналов
Расположение каналов : Front: L C R, Side: L R, LFE
Частота : 48,0 КГц
Метод сжатия : С потерями
Размер потока : 365 Мбайт (12%)
Заголовок : Dub - BD EUR
Язык : Russian
Default : Да
Forced : Нет
Аудио #2
Идентификатор : 3
Формат : AC-3
Формат/Информация : Audio Coding 3
Расширение режима : CM (complete main)
Параметр Endianness формата : Big
Идентификатор кодека : A_AC3
Продолжительность : 1 ч. 53 м.
Вид битрейта : Постоянный
Битрейт : 192 Кбит/сек
Каналы : 2 канала
Расположение каналов : Front: L R
Частота : 48,0 КГц
Метод сжатия : С потерями
Размер потока : 156 Мбайт (5%)
Заголовок : MVO - СВ Студия
Язык : Russian
Default : Нет
Forced : Нет
Аудио #3
Идентификатор : 4
Формат : AC-3
Формат/Информация : Audio Coding 3
Расширение режима : CM (complete main)
Параметр Endianness формата : Big
Идентификатор кодека : A_AC3
Продолжительность : 1 ч. 53 м.
Вид битрейта : Постоянный
Битрейт : 448 Кбит/сек
Каналы : 6 каналов
Расположение каналов : Front: L C R, Side: L R, LFE
Частота : 48,0 КГц
Метод сжатия : С потерями
Размер потока : 365 Мбайт (12%)
Заголовок : Original
Язык : English
Default : Нет
Forced : Нет
Текст #1
Идентификатор : 5
Формат : UTF-8
Идентификатор кодека : S_TEXT/UTF8
Идентификатор кодека/Информация : UTF-8 Plain Text
Заголовок : Forced
Язык : Russian
Default : Да
Forced : Да
Текст #2
Идентификатор : 6
Формат : UTF-8
Идентификатор кодека : S_TEXT/UTF8
Идентификатор кодека/Информация : UTF-8 Plain Text
Заголовок : Full
Язык : Russian
Default : Нет
Forced : Нет
Текст #3
Идентификатор : 7
Формат : UTF-8
Идентификатор кодека : S_TEXT/UTF8
Идентификатор кодека/Информация : UTF-8 Plain Text
Заголовок : Full
Язык : English
Default : Нет
Forced : Нет
Текст #4
Идентификатор : 8
Формат : UTF-8
Идентификатор кодека : S_TEXT/UTF8
Идентификатор кодека/Информация : UTF-8 Plain Text
Заголовок : Full - SDH
Язык : English
Default : Нет
Forced : Нет
Меню
00:00:00.000 : :Глава 1
00:03:30.710 : :Глава 2
00:12:16.485 : :Глава 3
00:16:56.724 : :Глава 4
00:21:03.053 : :Глава 5
00:26:42.601 : :Глава 6
00:32:33.326 : :Глава 7
00:39:44.090 : :Глава 8
00:45:18.590 : :Глава 9
00:50:43.623 : :Глава 10
00:54:16.253 : :Глава 11
01:01:10.708 : :Глава 12
01:06:26.899 : :Глава 13
01:11:39.545 : :Глава 14
01:16:08.105 : :Глава 15
01:21:37.142 : :Глава 16
01:25:08.603 : :Глава 17
01:30:15.410 : :Глава 18
01:36:46.801 : :Глава 19
01:43:52.559 : :Глава 20
01:49:43.201 : :Глава 21
01:53:53.284 : :Глава 22
-
[cybertorrent.net].t1574.torrent 
Торрент: Зарегистрирован [ 2019-03-29 17:15 ] · 2A73868818EC61C9F84653F5EB843A02F5953C27

Скачать .torrent

Скачать

15 KB

Статус: проверено
Скачан: 0 раз
Размер: 2,99 GB
terms.php
Профиль [ЛС]
Показать сообщения:    

Текущее время: 12-Дек 04:59

Часовой пояс: UTC ± 0



Вы не можете начинать темы
Вы не можете отвечать на сообщения
Вы не можете редактировать свои сообщения
Вы не можете удалять свои сообщения
Вы не можете голосовать в опросах
Вы не можете прикреплять файлы к сообщениям
Вы можете скачивать файлы