Статистика раздачи
Размер:  1,45 GB   |    Зарегистрирован:  8 месяцев 12 дней   |    Скачан:  0 раз

Полного источника не было: Никогда

 
     
 
 

serzh ®

Пол:
Не указан
Стаж:
8 месяцев 29 дней
Сообщений:
384

Скауты / The Wrong Guys
Страна: США
Жанр: Комедия
Год выпуска: 1988
Продолжительность: 01:26:00
Перевод: Авторский (одноголосый закадровый) Алексей Михалев
Субтитры: нет
Режиссер: Дэнни Билсон / Danny Bilson
В ролях: Луи Андерсон, Ричард Льюис, Ричард Белзер, Френклин Эджайя, Тим Томерсон, Брайон
Джеймс, Бифф Мэнард, Джон Гудман, Эрни Хадсон, Тимоти Ван Паттен
Описание: В этой комедии рассказывается о встрече бывших скаутов, решивших вспомнить
старые деньки. Ведь для многих из нас воспоминания, связанные с пионерским лагерем, на всю
жизнь остаются символом того времени, когда все было впереди. Один из вариантов ответов на
вопрос, стоит ли возвращаться туда, где тебе когда-то было так хорошо. Может быть, лучше не
срывать с прошлого вуаль времени?
Доп. информация: Дорожка с А. Михалевым синхронизирована и наложена ale_x2008 при помощи Sony Vegas и VirtualDubMod.
За предоставленную с ВК дорожку благодарим - яверь

Релиз
Сэмпл: https://yadi.sk/i/u5i4vH0vHtdFKw
Качество видео: DVDRip [by CG]
Формат видео: MKV
Видео: MPEG4 Video (H264), 720x464 (1.85:1), 23.976 fps, 2288 kbps avg, 0.278 bit/pixel
Аудио: AC3 Dolby Digital, 48000Hz 2/0 (L,R) ch (mono), 192 kbps avg

MediaInfo

Скауты (The Wrong Guys) DVDRip-AVC [by ale_x2008].mkv
Format : Matroska
Format version : Version 2
File size : 1.45 GiB
Duration : 1 h 26 min
Overall bit rate : 2 422 kb/s
Encoded date : UTC 2019-03-28 18:22:42
Writing application : mkvmerge v4.0.0 ('The Stars were mine') сборка от Jun 6 2010 16:18:42
Writing library : libebml v1.0.0 + libmatroska v1.0.0
Video
ID : 1
Format : AVC
Format/Info : Advanced Video Codec
Format profile : High@L3
Format settings : CABAC / 4 Ref Frames
Format settings, CABAC : Yes
Format settings, ReFrames : 4 frames
Codec ID : V_MPEG4/ISO/AVC
Duration : 1 h 26 min
Bit rate : 2 228 kb/s
Width : 720 pixels
Height : 464 pixels
Display aspect ratio : 1.85:1
Original display aspect rat : 1.85:1
Frame rate mode : Constant
Frame rate : 23.976 (24000/1001) FPS
Color space : YUV
Chroma subsampling : 4:2:0
Bit depth : 8 bits
Scan type : Progressive
Bits/(Pixel*Frame) : 0.278
Stream size : 1.31 GiB (90%)
Writing library : x264 core 120
Encoding settings : cabac=1 / ref=3 / deblock=1:0:0 / analyse=0x3:0x113 / me=hex / subme=7 / psy=1 / psy_rd=1.00:0.00 / mixed_ref=1 / me_range=16 / chroma_me=1 / trellis=1 / 8x8dct=1 / cqm=0 / deadzone=21,11 / fast_pskip=1 / chroma_qp_offset=-2 / threads=3 / sliced_threads=0 / nr=0 / decimate=1 / interlaced=0 / bluray_compat=0 / constrained_intra=0 / bframes=3 / b_pyramid=2 / b_adapt=2 / b_bias=0 / direct=1 / weightb=1 / open_gop=0 / weightp=2 / keyint=240 / keyint_min=24 / scenecut=40 / intra_refresh=0 / rc_lookahead=50 / rc=2pass / mbtree=1 / bitrate=2228 / ratetol=1.0 / qcomp=0.60 / qpmin=3 / qpmax=69 / qpstep=4 / cplxblur=20.0 / qblur=0.5 / ip_ratio=1.40 / aq=1:1.00
Language : English
Default : Yes
Forced : No
Color range : Limited
Color primaries : BT.601 NTSC
Transfer characteristics : BT.709
Matrix coefficients : BT.601
Audio
ID : 2
Format : AC-3
Format/Info : Audio Coding 3
Codec ID : A_AC3
Duration : 1 h 26 min
Bit rate mode : Constant
Bit rate : 192 kb/s
Channel(s) : 2 channels
Channel positions : Front: L R
Sampling rate : 48.0 kHz
Frame rate : 31.250 FPS (1536 SPF)
Bit depth : 16 bits
Compression mode : Lossy
Stream size : 118 MiB (8%)
Language : Russian
Service kind : Complete Main
Default : Yes
Forced : No

Скриншоты


[cybertorrent.net].t1569.torrent 
Торрент: Зарегистрирован [ 2019-03-29 17:15 ] · 1929BE2D797AFCFC73EFC44A290D41F0FCBBA5E0

Скачать .torrent

Скачать

15 KB

Статус: проверено
Скачан: 0 раз
Размер: 1,45 GB
terms.php
Профиль [ЛС]
Показать сообщения:    

Текущее время: 11-Дек 07:07

Часовой пояс: UTC ± 0



Вы не можете начинать темы
Вы не можете отвечать на сообщения
Вы не можете редактировать свои сообщения
Вы не можете удалять свои сообщения
Вы не можете голосовать в опросах
Вы не можете прикреплять файлы к сообщениям
Вы можете скачивать файлы