Статистика раздачи
Размер:  1,41 GB   |    Зарегистрирован:  7 месяцев 19 дней   |    Скачан:  0 раз

Полного источника не было: Никогда

 
     
 
 

солнышко ®

Пол:
Не указан
Стаж:
8 месяцев 5 дней
Сообщений:
565

-Мэри Поппинс возвращается / Mary Poppins Returns-«In a place we hold dear, where wonder once lived... but soon from above, a new story begins»- -Страна: США
Жанр: мюзикл, фэнтези, комедия, семейный
Год выпуска: 2018
Продолжительность: 02:10:29-Перевод: Любительский (многоголосый закадровый) HDRezka Studio
Субтитры: английские
Оригинальная аудиодорожка: нет-Режиссер: Роб Маршалл / Rob Marshall-В ролях: Эмили Блант, Лин-Мануэль Миранда, Бен Уишоу, Эмили Мортимер, Пикси Дейвис, Натаниэль Сале, Джоэль Доусон, Джули Уолтерс, Мэрил Стрип, Колин Фёрт-Описание: Музыкальное продолжение классической картины 1964 года рассказывает о приключениях Мэри и ее друга Джека, которым предстоит встретиться с представителями следующего поколения семейства Бэнкс. Яркая музыкальная история подарит новому поколению детей и взрослых незабываемую встречу с неповторимой няней, уверенной в том, что даже в самые сложные времена есть место искреннему восторгу и удивлению!-Примечание: Песни без перевода!- - -Качество видео: BDRip-AVC / Mary.Poppins.Returns.2018.BluRay.REMUX.1080p.AVC.Atmos.TrueHD7.1-iFT
Формат видео: MKV-Видео: MPEG-4 AVC, 914x382 (2.40:1), 23.976 fps, ~1320 kbps avg, 0.158 bit/pixel
Аудио: 48 kHz, AC3 Dolby Digital, 2/0 (L,R) ch, ~192 kbps avg-

MediaInfo

Код:Complete name : D:\Раздача\Мэри Поппинс возвращается (2018) BDRip-AVC__ivanes.mkv
Format : Matroska
Format version : Version 2
File size : 1.41 GiB
Duration : 2 h 10 min
Overall bit rate : 1 543 kb/s
Movie name : Мэри Поппинс возвращается (2018) BDRip-AVC_ivanes
Encoded date : UTC 2019-03-28 18:04:02
Writing application : mkvmerge v4.4.0 ('Die Wiederkehr') сборка от Jan 3 2011 21:40:45
Writing library : libebml v1.0.0 + libmatroska v1.0.0
Cover : Yes
Attachments : cover.jpg
Video
ID : 1
Format : AVC
Format/Info : Advanced Video Codec
Format profile : High@L4.1
Format settings, CABAC : Yes
Format settings, RefFrames : 12 frames
Codec ID : V_MPEG4/ISO/AVC
Duration : 2 h 10 min
Bit rate : 1 320 kb/s
Width : 914 pixels
Height : 382 pixels
Display aspect ratio : 2.40:1
Frame rate mode : Constant
Frame rate : 23.976 (24000/1001) FPS
Color space : YUV
Chroma subsampling : 4:2:0
Bit depth : 8 bits
Scan type : Progressive
Bits/(Pixel*Frame) : 0.158
Stream size : 1.20 GiB (86%)
Title : Rip by ivanes
Writing library : x264 core 157 r2935 545de2f
Encoding settings : cabac=1 / ref=12 / deblock=1:-3:-2 / analyse=0x3:0x113 / me=umh / subme=10 / psy=1 / psy_rd=1.00:0.00 / mixed_ref=1 / me_range=32 / chroma_me=1 / trellis=2 / 8x8dct=1 / cqm=0 / deadzone=21,11 / fast_pskip=0 / chroma_qp_offset=-2 / threads=12 / lookahead_threads=2 / sliced_threads=0 / nr=0 / decimate=1 / interlaced=0 / bluray_compat=0 / constrained_intra=0 / bframes=12 / b_pyramid=2 / b_adapt=2 / b_bias=0 / direct=1 / weightb=1 / open_gop=0 / weightp=2 / keyint=240 / keyint_min=23 / scenecut=40 / intra_refresh=0 / rc_lookahead=60 / rc=crf / mbtree=0 / crf=18.6 / qcomp=0.60 / qpmin=0 / qpmax=69 / qpstep=4 / vbv_maxrate=50000 / vbv_bufsize=62500 / crf_max=0.0 / nal_hrd=none / filler=0 / ip_ratio=1.40 / pb_ratio=1.30 / aq=1:1.00
Default : Yes
Forced : No
Statistics Tags Issue : mkvmerge v10.0.0 ('To Drown In You') 64bit 2019-03-28 16:02:21 / mkvmerge v4.4.0 ('Die Wiederkehr') сборка от Jan 3 2011 21:40:45 2019-03-28 18:04:02
FromStats_BitRate : 1348953
FromStats_Duration : 02:10:29.238000000
FromStats_FrameCount : 187714
FromStats_StreamSize : 1320159656
Audio
ID : 2
Format : AC-3
Format/Info : Audio Coding 3
Format settings, Endianness : Big
Codec ID : A_AC3
Duration : 2 h 10 min
Bit rate mode : Constant
Bit rate : 192 kb/s
Channel(s) : 2 channels
Channel positions : Front: L R
Sampling rate : 48.0 kHz
Frame rate : 31.250 FPS (1536 SPF)
Bit depth : 16 bits
Compression mode : Lossy
Stream size : 179 MiB (12%)
Title : HDRezka Studio
Language : Russian
Service kind : Complete Main
Default : Yes
Forced : No
Text
ID : 3
Format : UTF-8
Codec ID : S_TEXT/UTF8
Codec ID/Info : UTF-8 Plain Text
Title : Original
Language : English
Default : No
Forced : No

Скриншоты

[cybertorrent.net].t1562.torrent 
Торрент: Зарегистрирован [ 2019-03-29 17:15 ] · F4BC8C1F21F692994975AB3296AE449C3F282ECB

Скачать .torrent

Скачать

15 KB

Статус: проверено
Скачан: 0 раз
Размер: 1,41 GB
terms.php
Профиль ЛС
Показать сообщения:    

Текущее время: 17-Ноя 18:05

Часовой пояс: UTC ± 0



Вы не можете начинать темы
Вы не можете отвечать на сообщения
Вы не можете редактировать свои сообщения
Вы не можете удалять свои сообщения
Вы не можете голосовать в опросах
Вы не можете прикреплять файлы к сообщениям
Вы можете скачивать файлы