Статистика раздачи
Размер:  1,46 GB   |    Зарегистрирован:  7 месяцев 15 дней   |    Скачан:  0 раз

Полного источника не было: Никогда

 
     
 
 

солнышко ®

Пол:
Не указан
Стаж:
8 месяцев
Сообщений:
565

Пила 8 / Jigsaw
Страна: США
Жанр: триллер, криминал, детектив
Год выпуска: 2017
Продолжительность: 01:31:57

Перевод: Авторский (одноголосый закадровый) Андрей Дольский
Субтитры: нет
Режиссер: Майкл Спириг / Michael Spierig
В ролях: Мэтт Пассмор, Тобин Белл, Каллум Кит Ренни, Ханна Андерсон, Кле Беннетт, Лора Вандервурт, Пол Браунштейн, Мандела Пиблз, Бриттани Аллен
Описание: Джон Крамер мертв, и больше никто не попадает в его морализаторские смертельные ловушки. Но в городе обнаруживается труп мужчины, который невольно наталкивает полицейских на мысль о том, что «конструктор смерти» каким-то чудесным образом воскрес. Труп снабжен хитрой конструкцией, прикрепленной к голове, на его теле найдена характерная деталь паззла. Бонус к мертвецу — флешка с записью голоса Крамера. Убийца представил труп общественности весьма оригинальным способом, оповестив весь город о начале игры. Детектив Хэллоран, которому поручено вести это дело, не верит в мистику и воскрешения. Он склоняется к версии о подражателе, который подхватил эстафету у покойного Крамера. Тем временем в неизвестной части города в каком-то вместительном полутемном амбаре начинается новая игра. Цепи, убийственные задания, ловушки, плеер «Послушай меня» и мучительный выбор: кому жить, кому умереть, кому лишиться важных частей тела. Все в духе легендарного Пилы. Каждому — по заслугам за совершенные грехи. Чей-то безумный разум устраивает изощренное судилище. Пока полиция упорно ищет правду, пять человек против своей воли вступают в навязанную им игру. Они наивно полагают, что в ней можно одержать победу…

Сэмпл: http://multi-up.com/1227745
Качество видео: BDRip (Исходник Pila_8.2017.BDRemux.1080p.NNMClub.mkv)
Формат видео: AVI
Видео: XviD 73, 720x304, (2,35:1), 23,976 fps, 1848 Кбит/с, 8 бит, 0.35 bit/pixel
Аудио: Русский (АС3, 6 ch (Front: L C R, Side: L R, LFE), 48,0 KHz, 448 Kbps)

MediaInfo

Общее
Полное имя : D:\Фильмы на трекер\Пила - 8 (триллер, криминал, детектив 2017 год).avi
Формат : AVI
Формат/Информация : Audio Video Interleave
Размер файла : 1,46 Гбайт
Продолжительность : 1 ч. 30 м.
Общий поток : 2305 Кбит/сек
Программа кодирования : VirtualDubMod 1.5.10.2 (build 2540/release)
Библиотека кодирования : VirtualDubMod build 2540/release
Видео
Идентификатор : 0
Формат : MPEG-4 Visual
Профиль формата : Advanced Simple@L5
Параметр BVOP формата : 2
Параметр QPel формата : Нет
Параметр GMC формата : Без точки перехода
Параметр матрицы формата : Выборочная
Идентификатор кодека : XVID
Идентификатор кодека/Подсказка : XviD
Продолжительность : 1 ч. 30 м.
Битрейт : 1848 Кбит/сек
Ширина : 720 пикселей
Высота : 304 пикселя
Соотношение сторон : 2,35:1
Частота кадров : 23,976 (23976/1000) кадра/сек
Цветовое пространство : YUV
Субдискретизация насыщенности : 4:2:0
Битовая глубина : 8 бит
Тип развёртки : Прогрессивная
Метод сжатия : С потерями
Бит/(Пиксели*Кадры) : 0.352
Размер потока : 1,17 Гбайт (80%)
Библиотека кодирования : XviD 73
Аудио
Идентификатор : 1
Формат : AC-3
Формат/Информация : Audio Coding 3
Расширение режима : CM (complete main)
Параметр Endianness формата : Big
Идентификатор кодека : 2000
Продолжительность : 1 ч. 30 м.
Вид битрейта : Постоянный
Битрейт : 448 Кбит/сек
Каналы : 6 каналов
Расположение каналов : Front: L C R, Side: L R, LFE
Частота : 48,0 КГц
Частота кадров : 31,250 кадров/сек (1536 spf)
Метод сжатия : С потерями
Размер потока : 290 Мбайт (19%)
Выравнивание : Разделение по промежуткам
Продолжительность промежутка : 42 мс. (1,00 видеокадр)
Время предзагрузки промежутка : 500 мс.

Скриншот c названием фильма

Скриншоты

[cybertorrent.net].t1546.torrent 
Торрент: Зарегистрирован [ 2019-03-28 16:49 ] · 2DAC3F2087D1D1C4393B1D59C3D27950E1A86CC8

Скачать .torrent

Скачать

15 KB

Статус: проверено
Скачан: 0 раз
Размер: 1,46 GB
terms.php
Профиль ЛС
Показать сообщения:    

Текущее время: 13-Ноя 00:07

Часовой пояс: UTC ± 0



Вы не можете начинать темы
Вы не можете отвечать на сообщения
Вы не можете редактировать свои сообщения
Вы не можете удалять свои сообщения
Вы не можете голосовать в опросах
Вы не можете прикреплять файлы к сообщениям
Вы можете скачивать файлы