Статистика раздачи
Размер:  3,9 GB   |    Зарегистрирован:  8 месяцев 17 дней   |    Скачан:  0 раз

Полного источника не было: Никогда

 
     
 
 

солнышко ®

Пол:
Не указан
Стаж:
9 месяцев 2 дня
Сообщений:
614

Бамблби / Bumblebee«У каждого приключения есть начало»- Страна: США, Китай
Жанр: фантастика, боевик, приключения
Год выпуска: 2018
Продолжительность: 01:53:53
Перевод: Профессиональный (дублированный) (BD EUR)
Оригинальная аудиодорожка: английский
Субтитры: русские (форс., полные) английские (полные, SDH)
Навигация по главам: есть
Режиссер: Трэвис Найт / Travis Knight
В ролях: Дилан О’Брайен (Bumblebee, озвучка), Хейли Стайнфелд (Charlie), Хорхе Лендеборг мл. (Memo), Джон Сина (Agent Burns), Джейсон Йен Дракер (Otis), Памела Адлон (Sally), Стивен Шнайдер (Ron), Рикардо Хойос (Tripp), Джон Ортис (Dr. Powell), Глинн Тёрмен (General Whalen), Лен Кариу (Uncle Hank), Коллин Холц (Craig)
Описание: 1987 год. Скрываясь от преследования, Бамблби прибывает на Землю, где тут же сталкивается с военными. В результате стычки с землянами и десептиконом, Бамблби лишается голосового модуля, повреждает память и перед отключкой сканирует стоящий неподалёку Фольксваген Жук. Через некоторое время девушка по имени Чарли находит его на автомобильной свалке в калифорнийском городке и получает в качестве подарка на 18-летие. Закатив машину в свой гараж, Чарли с удивлением обнаруживает, что ей достался не простой жёлтый Фольксваген Жук.- -Качество: BDRip-AVC (исходник - BDRemux|BUMBLEBEE_2018_IMAX_RMX_BLUEBIRD)
Формат видео: MKV
Видео: x264, 1152x648 (16:9) 23,976 fps, ~3913 kbps, 0,219 bit/pixel
Аудио 1: 48 kHz, AC3 Dolby Digital, 3/2 (L,C,R,l,r) + LFE ch, ~448 kbps [русский]
Аудио 2: 48 kHz, AC3 Dolby Digital, 3/2 (L,C,R,l,r) + LFE ch, ~448 kbps [английский]
Формат субтитров: softsub (SRT)-

MediaInfo | x264 log

Format : Matroska
Format version : Version 4 / Version 2
File size : 3.90 GiB
Duration : 1 h 53 min
Overall bit rate : 4 907 kb/s
Movie name : Бамблби / Bumblebee (2018) :: AFM ::
Encoded date : UTC 2019-03-27 23:06:26
Writing application : mkvmerge v8.3.0 ('Over the Horizon') 32bit
Writing library : libebml v1.3.1 + libmatroska v1.4.2
Cover : Yes
Attachments : cover.jpg
Video
ID : 1
Format : AVC
Format/Info : Advanced Video Codec
Format profile : High@L4.1
Format settings, CABAC : Yes
Format settings, ReFrames : 11 frames
Codec ID : V_MPEG4/ISO/AVC
Duration : 1 h 53 min
Bit rate : 3 913 kb/s
Width : 1 152 pixels
Height : 648 pixels
Display aspect ratio : 16:9
Frame rate mode : Constant
Frame rate : 23.976 (24000/1001) FPS
Color space : YUV
Chroma subsampling : 4:2:0
Bit depth : 8 bits
Scan type : Progressive
Bits/(Pixel*Frame) : 0.219
Stream size : 3.11 GiB (80%)
Title : BDRip by AFM
Writing library : x264 core 157 r2867+150 7e91e0e t_mod_Custom_2 [8-bit@all X86_64]
Encoding settings : cabac=1 / ref=11 / deblock=1:-3:-2 / analyse=0x3:0x113 / me=umh / subme=10 / psy=1 / fade_compensate=0.00 / psy_rd=1.00:0.00 / mixed_ref=1 / me_range=32 / chroma_me=0 / trellis=2 / 8x8dct=1 / cqm=0 / deadzone=21,11 / fast_pskip=0 / chroma_qp_offset=-2 / threads=6 / lookahead_threads=1 / sliced_threads=0 / nr=0 / decimate=1 / interlaced=0 / bluray_compat=0 / constrained_intra=0 / fgo=0 / bframes=13 / b_pyramid=2 / b_adapt=2 / b_bias=0 / direct=1 / weightb=1 / open_gop=0 / weightp=2 / keyint=240 / keyint_min=23 / scenecut=40 / intra_refresh=0 / rc_lookahead=60 / rc=crf / mbtree=0 / crf=18.5000 / qcomp=0.65 / qpmin=0:0:0 / qpmax=69:69:69 / qpstep=4 / vbv_maxrate=50000 / vbv_bufsize=62500 / crf_max=0.0 / nal_hrd=none / filler=0 / ip_ratio=1.35 / pb_ratio=1.25 / aq=3:0.90 / aq-sensitivity=10.00 / aq-factor=1.00:1.00:1.00 / aq2=0 / aq3=0
Language : English
Default : Yes
Forced : No
Audio #1
ID : 2
Format : AC-3
Format/Info : Audio Coding 3
Mode extension : CM (complete main)
Format settings, Endianness : Big
Codec ID : A_AC3
Duration : 1 h 53 min
Bit rate mode : Constant
Bit rate : 448 kb/s
Channel(s) : 6 channels
Channel positions : Front: L C R, Side: L R, LFE
Sampling rate : 48.0 kHz
Frame rate : 31.250 FPS (1536 spf)
Compression mode : Lossy
Stream size : 365 MiB (9%)
Title : Dub, AC3 5.1 ~448 kbps
Language : Russian
Default : Yes
Forced : No
Audio #2
ID : 3
Format : AC-3
Format/Info : Audio Coding 3
Mode extension : CM (complete main)
Format settings, Endianness : Big
Codec ID : A_AC3
Duration : 1 h 53 min
Bit rate mode : Constant
Bit rate : 448 kb/s
Channel(s) : 6 channels
Channel positions : Front: L C R, Side: L R, LFE
Sampling rate : 48.0 kHz
Frame rate : 31.250 FPS (1536 spf)
Compression mode : Lossy
Stream size : 365 MiB (9%)
Title : Original, AC3 5.1 ~448 kbps
Language : English
Default : No
Forced : No
Text #1
ID : 4
Format : UTF-8
Codec ID : S_TEXT/UTF8
Codec ID/Info : UTF-8 Plain Text
Title : forced
Language : Russian
Default : Yes
Forced : No
Text #2
ID : 5
Format : UTF-8
Codec ID : S_TEXT/UTF8
Codec ID/Info : UTF-8 Plain Text
Language : Russian
Default : No
Forced : No
Text #3
ID : 6
Format : UTF-8
Codec ID : S_TEXT/UTF8
Codec ID/Info : UTF-8 Plain Text
Language : English
Default : No
Forced : No
Text #4
ID : 7
Format : UTF-8
Codec ID : S_TEXT/UTF8
Codec ID/Info : UTF-8 Plain Text
Title : SDH
Language : English
Default : No
Forced : No
Menu
00:00:00.000 : en:Chapter 1
00:03:30.710 : en:Chapter 2
00:12:16.485 : en:Chapter 3
00:16:56.724 : en:Chapter 4
00:21:03.053 : en:Chapter 5
00:26:42.601 : en:Chapter 6
00:32:33.326 : en:Chapter 7
00:39:44.090 : en:Chapter 8
00:45:18.590 : en:Chapter 9
00:50:43.622 : en:Chapter 10
00:54:16.252 : en:Chapter 11
01:01:10.708 : en:Chapter 12
01:06:26.898 : en:Chapter 13
01:11:39.545 : en:Chapter 14
01:16:08.104 : en:Chapter 15
01:21:37.140 : en:Chapter 16
01:25:08.603 : en:Chapter 17
01:30:15.408 : en:Chapter 18
01:36:46.801 : en:Chapter 19
01:43:52.559 : en:Chapter 20
01:49:43.201 : en:Chapter 21

x264

x264 [info]: frame I:1398 Avg QP:15.55 size:108901
x264 [info]: frame P:36033 Avg QP:16.99 size: 40457
x264 [info]: frame B:126409 Avg QP:18.94 size: 14350
x264 [info]: consecutive B-frames: 2.5% 2.5% 9.1% 19.9% 16.0% 41.7% 3.8% 1.1% 0.8% 0.4% 0.4% 1.0% 0.4% 0.6%
x264 [info]: mb I I16..4: 4.3% 81.0% 14.6%
x264 [info]: mb P I16..4: 1.6% 18.5% 2.4% P16..4: 34.5% 26.7% 12.8% 0.0% 0.0% skip: 3.4%
x264 [info]: mb B I16..4: 0.1% 1.6% 0.3% B16..8: 38.9% 13.2% 3.2% direct: 7.1% skip:35.7% L0:44.3% L1:44.8% BI:10.9%
x264 [info]: 8x8 transform intra:81.8% inter:66.8%
x264 [info]: coded y,uvDC,uvAC intra: 89.4% 91.8% 77.3% inter: 27.3% 30.7% 9.8%
x264 [info]: i16 v,h,dc,p: 23% 13% 9% 55%
x264 [info]: i8 v,h,dc,ddl,ddr,vr,hd,vl,hu: 10% 9% 6% 10% 14% 13% 14% 11% 13%
x264 [info]: i4 v,h,dc,ddl,ddr,vr,hd,vl,hu: 9% 7% 3% 10% 16% 14% 15% 11% 14%
x264 [info]: i8c dc,h,v,p: 48% 19% 15% 17%
x264 [info]: Weighted P-Frames: Y:5.5% UV:4.1%
x264 [info]: ref P L0: 48.3% 9.9% 16.8% 6.2% 5.3% 3.6% 3.4% 1.7% 1.7% 1.4% 1.5% 0.1% 0.0%
x264 [info]: ref B L0: 72.4% 11.4% 5.8% 3.1% 2.2% 1.8% 1.5% 0.9% 0.6% 0.3%
x264 [info]: ref B L1: 94.3% 5.7%
x264 [info]: kb/s:4008.48

Скриншоты

с названием

~~source~~

~~rip~~
[cybertorrent.net].t1538.torrent 
Торрент: Зарегистрирован [ 2019-03-28 16:49 ] · 248A6F6E53AA68170DE86F76A888C0848E6864F3

Скачать .torrent

Скачать

20 KB

Статус: проверено
Скачан: 0 раз
Размер: 3,9 GB
terms.php
Профиль [ЛС]
Показать сообщения:    

Текущее время: 15-Дек 11:44

Часовой пояс: UTC ± 0



Вы не можете начинать темы
Вы не можете отвечать на сообщения
Вы не можете редактировать свои сообщения
Вы не можете удалять свои сообщения
Вы не можете голосовать в опросах
Вы не можете прикреплять файлы к сообщениям
Вы можете скачивать файлы