Статистика раздачи
Размер:  1,43 GB   |    Зарегистрирован:  7 месяцев 16 дней   |    Скачан:  0 раз

Полного источника не было: Никогда

 
     
 
 

serzh ®

Пол:
Не указан
Стаж:
8 месяцев 1 день
Сообщений:
384

Колдовство Бена Вагнера
The Witching of Ben Wagner

Страна: США
Жанр: детский, семейный
Год выпуска: 1987
Продолжительность: 01:35:51
Перевод: Авторский (одноголосый закадровый) Леонида Володарского
Субтитры: нет
Оригинальная аудиодорожка: нет
Режиссер: Пол Аннет /Paul Annett/
В ролях: Сэм Боттомс /Sam Bottoms/, Хэрриэт Холл /Harriet Hall/, Беттина Рэй /Bettina Rae/, Джастин Гок /Justin Gocke/, Сильвия Сидни /Sylvia Sidney/...
Рецензия Михаила Иванова: Семья переезжает на новое место работы отца в очень красивом городке в горах. Герой этого фильма, одиннадцатилетний мальчик, знакомится с девочкой у озера, которую все считают ведьмой. Ведьмой считают и ее бабушку. Но мальчику она нравится. Она помогает ему поверить в себя, а он, думая, что это колдовство, поверил в себя настолько, что добивается успехов там, где ему это раньше и не снилось - даже в баскетболе. А в конце "заколдованными" оказались все члены его семьи. Даже папа, который спасает прекрасное озеро от постройки современного комплекса. Сценарий Малколма Мэрморстайна по роману Мэри Джейн Ауч.
Доп. информация: в начальных трёх минутах звук плывёт /ускоряется-замедляется/, на ~6 минут длиннее двд-издания /там удалены множество крошечных эпизодов/, периодически появляется предупреждение о запрете торговли, оцифровал и подготовил karlll
~сэмпл~
Качество видео: VHSRip
Формат видео: AVI
Видео: 688x528 (1.30:1), 25 fps, XviD build 73 ~1928 kbps avg, 0.21 bit/pixel
Аудио: 48 kHz, AC3 Dolby Digital, 2/0 (L,R) ch, ~192 kbps

MediaInfo

Format : AVI
Format/Info : Audio Video Interleave
File size : 1.43 GiB
Duration : 1 h 35 min
Overall bit rate : 2 130 kb/s
Movie name : The Witching of Ben Wagner_1990
Writing application : VirtualDubMod 1.5.10.3 | www.virtualdub-fr.org || (build 2550/release)
Writing library : VirtualDubMod build 2550/release
Copyright : KBC
Video
ID : 0
Format : MPEG-4 Visual
Format profile : Advanced Simple@L5
Format settings : BVOP2 / Custom Matrix
Format settings, BVOP : 2
Format settings, QPel : No
Format settings, GMC : No warppoints
Format settings, Matrix : Custom
Codec ID : XVID
Codec ID/Hint : XviD
Duration : 1 h 35 min
Bit rate : 1 929 kb/s
Width : 688 pixels
Height : 528 pixels
Display aspect ratio : 4:3
Frame rate : 25.000 FPS
Color space : YUV
Chroma subsampling : 4:2:0
Bit depth : 8 bits
Scan type : Progressive
Compression mode : Lossy
Bits/(Pixel*Frame) : 0.212
Stream size : 1.29 GiB (91%)
Writing library : XviD 73
Audio
ID : 1
Format : AC-3
Format/Info : Audio Coding 3
Commercial name : Dolby Digital
Codec ID : 2000
Duration : 1 h 35 min
Bit rate mode : Constant
Bit rate : 192 kb/s
Channel(s) : 2 channels
Channel layout : L R
Sampling rate : 48.0 kHz
Frame rate : 31.250 FPS (1536 SPF)
Bit depth : 16 bits
Compression mode : Lossy
Stream size : 132 MiB (9%)
Alignment : Split accross interleaves
Interleave, duration : 40 ms (1.00 video frame)
Interleave, preload duration : 500 ms
Title : Володарский
Service kind : Complete Main

Скриншоты

[cybertorrent.net].t1537.torrent 
Торрент: Зарегистрирован [ 2019-03-28 16:49 ] · 96C02585EC655D7B85BE251655104EC1A3D021D6

Скачать .torrent

Скачать

15 KB

Статус: проверено
Скачан: 0 раз
Размер: 1,43 GB
terms.php
Профиль ЛС
Показать сообщения:    

Текущее время: 13-Ноя 17:59

Часовой пояс: UTC ± 0



Вы не можете начинать темы
Вы не можете отвечать на сообщения
Вы не можете редактировать свои сообщения
Вы не можете удалять свои сообщения
Вы не можете голосовать в опросах
Вы не можете прикреплять файлы к сообщениям
Вы можете скачивать файлы