Статистика раздачи
Размер:  1,38 GB   |    Зарегистрирован:  6 месяцев 18 дней   |    Скачан:  0 раз

Полного источника не было: Никогда

   
 

Гость ®

Пол:
Не указан

Маршалл — чудо собака / Marshall the Miracle Dog / Marshall's Miracle
Страна: США
Жанр: Семейный
Год выпуска: 2015
Продолжительность: 01:29:51
Перевод: Любительский (многоголосый закадровый) Синема УС
Субтитры: нет
Режиссер: Джей Канцлер / Jay Kanzler
В ролях: Шеннон Элизабет, Мэттью Сеттл, Лорен Холли, Билл Чотт, Лукас МакХью Кэролл, Зэк Луис, Хейли Буш, Нэйтан Эсвайн, Уилльям Бурк, Дакота Пэйн
Описание: В новой школе 13-летний Финн становится мишенью для хулиганов. Ему кажется, что его жизнь кончена. Но его жизнь резко меняется, когда он узнаёт, что в питомнике около городка содержат в ужасных условиях около 60-ти собак. Там он находит лабрадора по имени Маршалл, которому срочно нужна помощь ветеринара. Финн решает спасти эту собаку.
Доп. информация: Без рекламы
Сэмпл: https://www.sendspace.com/file/9n926i
Качество видео: WEB-DLRip
Формат видео: AVI
Видео: XviD, 720 х 304 пикс, 23,976 кадра/сек, ~ 2000 кбит/сек, 0.380 Бит/(Пиксели*Кадры)
Аудио: AC-3, 48,0 КГц, 192 Кбит/сек Постоянный, 2 канала Front: L R

MediaInfo

Общее
Полное имя : C:\фильмы\02 возможно для раздачи\Маршалл — чудо собака 2015г\Маршалл - чудо собака 2015г.avi
Формат : AVI
Формат/Информация : Audio Video Interleave
Размер файла : 1,38 Гбайт
Продолжительность : 1 ч. 29 м.
Общий поток : 2193 Кбит/сек
Видео
Идентификатор : 0
Формат : MPEG-4 Visual
Профиль формата : Simple@L3
Параметр BVOP формата : Нет
Параметр QPel формата : Нет
Параметр GMC формата : Без точки перехода
Параметр матрицы формата : Default (H.263)
Идентификатор кодека : XVID
Идентификатор кодека/Подсказка : XviD
Продолжительность : 1 ч. 29 м.
Битрейт : 1992 Кбит/сек
Ширина : 720 пикселей
Высота : 304 пикселя
Соотношение сторон : 2,35:1
Частота кадров : 23,976 кадра/сек
Цветовое пространство : YUV
Субдискретизация насыщенности : 4:2:0
Битовая глубина : 8 бит
Тип развёртки : Прогрессивная
Метод сжатия : С потерями
Бит/(Пиксели*Кадры) : 0.380
Размер потока : 1,25 Гбайт (91%)
Библиотека кодирования : XviD 64
Аудио
Идентификатор : 1
Формат : AC-3
Формат/Информация : Audio Coding 3
Расширение режима : CM (complete main)
Параметр Endianness формата : Big
Идентификатор кодека : 2000
Продолжительность : 1 ч. 29 м.
Продолжительность оригинала : 1 ч. 29 м.
Вид битрейта : Постоянный
Битрейт : 192 Кбит/сек
Каналы : 2 канала
Расположение каналов : Front: L R
Частота : 48,0 КГц
Битовая глубина : 16 бит
Метод сжатия : С потерями
Размер потока : 123 Мбайт (9%)
Выравнивание : Соединение по промежуткам
Продолжительность промежутка : 42 мс. (1,00 видеокадр)

Скриншоты фильма и названия


Предыдущие или аналогичные раздачи

пока нет

источник рипа

сайт Близзардкидс
Огромное Спасибо, raspisuha! за фильм с озвучкой без рекламы!

форум "фильмы о собаках и волках"

http://cybertorrent.ru/forum/viewtopic.php?t=1144862
[cybertorrent.net].t1529.torrent 
Торрент: Зарегистрирован [ 2019-03-28 16:49 ] · 97D294F0A1F0299A694466383701254C5E7E83A4

Скачать .torrent

Скачать

14 KB

Статус: проверено
Скачан: 0 раз
Размер: 1,38 GB
terms.php
Показать сообщения:    

Текущее время: 15-Окт 21:17

Часовой пояс: UTC ± 0



Вы не можете начинать темы
Вы не можете отвечать на сообщения
Вы не можете редактировать свои сообщения
Вы не можете удалять свои сообщения
Вы не можете голосовать в опросах
Вы не можете прикреплять файлы к сообщениям
Вы можете скачивать файлы