Статистика раздачи
Размер:  8,81 GB   |    Зарегистрирован:  7 месяцев 16 дней   |    Скачан:  0 раз

Полного источника не было: Никогда

 
     
 
 

Гость ®

Пол:
Не указан

-Флэш | The Flash- Год выпуска: 2018
Страна: США
Жанр: Фантастика, боевик, драма, приключения
Продолжительность: ~ 00:43:00-Перевод: Профессиональный (многоголосый закадровый) | Lostfilm-Режиссёр: Дермотт Даунс, Ральф Хемекер, Глен Винтер-В ролях: Грант Гастин, Кэндис Паттон, Даниэль Панабэйкер, Карлос Валдес, Томас Кавана, Джесси Л. Мартин, Кейнан Лонсдейл, Даниэль Николет, Патрик Сабонгуй, Джессика Паркер Кеннеди-Описание: Когда Барри Аллен был маленьким, больше всего на свете ему хотелось быть супергероем - тем, кто превосходит лимиты человеческого организма и использует во благо данную ему силу. Когда Барри было одиннадцать лет, он на собственном опыте узнал, что люди с необычными способностями действительно существуют: его мать была убита одним из таких людей. Повзрослев и став судмедэкспертом, Барри не отбросил мыслей о сверхлюдях и продолжал искать доказательства их существования, что не лучшим образом сказывалось на его репутации и общении с коллегами. Впрочем, однажды его усилия были вознаграждены…- -[box=#aed8ff,#003465]Ссылка на предыдущие и альтернативные раздачи[/box]-Исходник: WEB-DL 1080p
Качество: WEB-DLRip
Формат: AVI
Видео: XviD, 720x400 (16:9), 23,976 кадров/сек, ~1500 Кбит/сек
Аудио Rus: MP3, 48 kHz, 2 ch, 128 Кбит/сек | Lostfilm
Аудио Eng: MP3, 48 kHz, 2 ch, 128 Кбит/сек
Субтитры: Отсутствуют
Реклама: Отсутствует-

Список серий

01. Нора | Nora
02. В блоке | Blocked
03. Гибель Вайба | The Death of Vibe
04. Экстренные сообщения | News Flash
05. Не игрушка | All Doll'd Up
06. Явление Сосульки | The Icicle Cometh
07. Придите, благодарные | O Come, All Ye Thankful
08. Что случилось - лишь пролог | What's Past Is Prologue
09. Иные миры. Часть 1 | Elseworlds, Part 1
10. Мета-Форсаж | The Flash & The Furious
11. Во власти гнева | Seeing Red
12. Сувенир | Memorabilia
13. Златоликий | Goldfaced
14. Эффект Эксцесса | Cause and XS
15. Король Акула против Гориллы Гродда | King Shark vs. Gorilla Grodd
16. Неудача всегда сирота | Failure is an Orphan
17. Отложенный взрыв | Time Bomb
-

MediaInfo

Общее
Полное имя : E:\The Flash (Season 5) WEB-DLRip\The.Flash.S05E01.Nora.WEB-DLRip.[Wentworth_Miller].avi
Формат : AVI
Формат/Информация : Audio Video Interleave
Размер файла : 536 Мбайт
Продолжительность : 42 м. 19 с.
Общий поток : 1770 Кбит/сек
Программа кодирования : VirtualDubMod 1.5.10.2 (build 2540/release)
Библиотека кодирования : VirtualDubMod build 2540/release
Видео
Идентификатор : 0
Формат : MPEG-4 Visual
Профиль формата : Advanced Simple@L5
Настройки формата : BVOP1
Параметр BVOP формата : 1
Параметр QPel формата : Нет
Параметр GMC формата : Без точки перехода
Параметр матрицы формата : Default (MPEG)
Идентификатор кодека : XVID
Идентификатор кодека/Подсказка : XviD
Продолжительность : 42 м. 19 с.
Битрейт : 1500 Кбит/сек
Ширина : 720 пикселей
Высота : 400 пикселей
Соотношение сторон : 16:9
Частота кадров : 23,976 (24000/1001) кадра/сек
Цветовое пространство : YUV
Субдискретизация насыщенности : 4:2:0
Битовая глубина : 8 бит
Тип развёртки : Прогрессивная
Метод сжатия : С потерями
Бит/(Пиксели*Кадры) : 0.217
Размер потока : 454 Мбайт (85%)
Библиотека кодирования : XviD 61
Аудио #1
Идентификатор : 1
Формат : MPEG Audio
Версия формата : Version 1
Профиль формата : Layer 3
Идентификатор кодека : 55
Идентификатор кодека/Подсказка : MP3
Продолжительность : 42 м. 19 с.
Вид битрейта : Постоянный
Битрейт : 128 Кбит/сек
Каналы : 2 канала
Частота : 48,0 КГц
Частота кадров : 41,667 кадра/сек (1152 SPF)
Метод сжатия : С потерями
Размер потока : 38,7 Мбайт (7%)
Выравнивание : Соединение по промежуткам
Продолжительность промежутка : 42 мс. (1,00 видеокадр)
Время предзагрузки промежутка : 504 мс.
Библиотека кодирования : LAME3.98r
Настройки программы : -m s -V 4 -q 2 -lowpass 17 -b 128
Аудио #2
Идентификатор : 2
Формат : MPEG Audio
Версия формата : Version 1
Профиль формата : Layer 3
Настройки формата : Joint stereo / MS Stereo
Идентификатор кодека : 55
Идентификатор кодека/Подсказка : MP3
Продолжительность : 42 м. 19 с.
Вид битрейта : Постоянный
Битрейт : 128 Кбит/сек
Каналы : 2 канала
Частота : 48,0 КГц
Метод сжатия : С потерями
Размер потока : 38,7 Мбайт (7%)
Выравнивание : Соединение по промежуткам
Продолжительность промежутка : 42 мс. (1,00 видеокадр)
Время предзагрузки промежутка : 504 мс.
Библиотека кодирования : LAME3.97
-

Скриншоты

-

Внимание! Раздача ведётся путём добавления новых серий

Внимание! Раздача ведётся путём добавления новых серий; при каждом добавлении создаётся новый торрент. Чтобы начать докачку новой серии, пользователям необходимо сделать следующее:
(1) остановить скачивание,
(2) удалить старый торрент у себя из клиента (старые серии удалять не надо),
(3) скачать новый торрент и запустить его у себя в клиенте вместо старого, при этом указать клиенту путь в старую папку куда и должно происходить скачивание новых серий.
Ваш клиент при этом должен произвести хеширование (проверку) старой папки (если не производит сам - помогите ему сделать это), и будет докачивать только те серии которых у вас ещё нет. Старые серии при этом не удаляются, а продолжают раздаваться!
Eсли вы уже удалили старые серии, то предотвратить повторную закачку старых серий можно, отжав галочку в соответствующих местах при запуске нового торрента. По возможности, желательно не удалять старые серии как можно дольше чтобы релизёр не столько продолжал раздавать старые серии, а смог сконцентрироваться на новых.
[cybertorrent.net].t1522.torrent 
Торрент: Зарегистрирован [ 2019-03-28 16:49 ] · 9C6314152AA23A524D8BEAE2D44E05915FC9331B

Скачать .torrent

Скачать

46 KB

Статус: проверено
Скачан: 0 раз
Размер: 8,81 GB
terms.php
Показать сообщения:    

Текущее время: 14-Ноя 04:23

Часовой пояс: UTC ± 0



Вы не можете начинать темы
Вы не можете отвечать на сообщения
Вы не можете редактировать свои сообщения
Вы не можете удалять свои сообщения
Вы не можете голосовать в опросах
Вы не можете прикреплять файлы к сообщениям
Вы можете скачивать файлы