Статистика раздачи
Размер:  2,19 GB   |    Зарегистрирован:  7 месяцев 17 дней   |    Скачан:  0 раз

Полного источника не было: Никогда

 
     
 
 

serzh ®

Пол:
Не указан
Стаж:
8 месяцев 1 день
Сообщений:
384

Клич свободы / Cry freedom
Страна: Великобритания
Жанр: драма, биография
Год выпуска: 1987
Продолжительность: 02:37:35
Перевод: Профессиональный (многоголосый закадровый) Paramount
Субтитры: нет
Оригинальная аудиодорожка: английский
Режиссер: Ричард Аттенборо / Richard Attenborough
В ролях: Кевин Клайн, Дензел Вашингтон, Пенелопа Уилтон, Кевин МакНэлли, Джон Тоу, Тимоти Уэст, Хуанита Уотермен, Джон Харгривз, Алек МакКоуэн, Закес Мокае
Описание: В центре внимания фильма судьбы двух людей: лидера движения за национальное самосознание африканского населения Банту Стивена Бико и первоначально критиковавшего Бико за «чёрный расизм» белого журналиста Дональда Вудса из Ист-Лондона, портового города в ЮАР, который, постепенно подружившись с Бико и разобравшись в истинных целях деятельности молодого борца с апартеидом, встал на его сторону…
Сэмпл: http://multi-up.com/1227670
Качество видео: HDRip
Формат видео: AVI
Видео: MPEG4, XviD, 720x304 (2.35:1), 23.976 fps, 1 590 Kbps (0.303 bit/pixel)
Аудио: AC-3, 48.0 KHz, 2 ch, 192 Kbps, CBR - русский
Аудио 2: AC-3, 48.0 KHz, 2 ch, 192 Kbps, CBR - английский

MediaInfo

Общее
Полное имя : F:\Клич свободы.avi
Формат : AVI
Формат/Информация : Audio Video Interleave
Профиль формата : OpenDML
Размер файла : 2,19 Гбайт
Продолжительность : 2 ч. 37 м.
Общий поток : 1993 Кбит/сек
Название фильма : Клич свободы / Cry freedom (1987)
Программа кодирования : VirtualDubMod 1.5.10.2 (build 2540/release)
Библиотека кодирования : VirtualDubMod build 2540/release
Авторское право : miha2154
Видео
Идентификатор : 0
Формат : MPEG-4 Visual
Профиль формата : Advanced Simple@L5
Настройки формата : BVOP1 / Custom Matrix
Параметр BVOP формата : 1
Параметр QPel формата : Нет
Параметр GMC формата : Без точки перехода
Параметр матрицы формата : Выборочная
Идентификатор кодека : XVID
Идентификатор кодека/Подсказка : XviD
Продолжительность : 2 ч. 37 м.
Битрейт : 1590 Кбит/сек
Ширина : 720 пикселей
Высота : 304 пикселя
Соотношение сторон : 2,35:1
Частота кадров : 23,976 (24000/1001) кадра/сек
Цветовое пространство : YUV
Субдискретизация насыщенности : 4:2:0
Битовая глубина : 8 бит
Тип развёртки : Прогрессивная
Метод сжатия : С потерями
Бит/(Пиксели*Кадры) : 0.303
Размер потока : 1,75 Гбайт (80%)
Библиотека кодирования : XviD 65
Аудио #1
Идентификатор : 1
Формат : AC-3
Формат/Информация : Audio Coding 3
Коммерческое название : Dolby Digital
Идентификатор кодека : 2000
Продолжительность : 2 ч. 37 м.
Вид битрейта : Постоянный
Битрейт : 192 Кбит/сек
Каналы : 2 канала
Channel layout : L R
Частота : 48,0 КГц
Частота кадров : 31,250 кадров/сек (1536 SPF)
Битовая глубина : 16 бит
Метод сжатия : С потерями
Размер потока : 216 Мбайт (10%)
Выравнивание : Разделение по промежуткам
Продолжительность промежутка : 42 мс. (1,00 видеокадр)
Время предзагрузки промежутка : 500 мс.
Заголовок : Профессиональный (многоголосый, закадровый) Paramount Channel
ServiceKind/String : Complete Main
Аудио #2
Идентификатор : 2
Формат : AC-3
Формат/Информация : Audio Coding 3
Коммерческое название : Dolby Digital
Идентификатор кодека : 2000
Продолжительность : 2 ч. 37 м.
Вид битрейта : Постоянный
Битрейт : 192 Кбит/сек
Каналы : 2 канала
Channel layout : L R
Частота : 48,0 КГц
Частота кадров : 31,250 кадров/сек (1536 SPF)
Битовая глубина : 16 бит
Метод сжатия : С потерями
Размер потока : 216 Мбайт (10%)
Выравнивание : Разделение по промежуткам
Продолжительность промежутка : 42 мс. (1,00 видеокадр)
Время предзагрузки промежутка : 500 мс.
Заголовок : Английский
ServiceKind/String : Complete Main

Скриншоты


[cybertorrent.net].t1517.torrent 
Торрент: Зарегистрирован [ 2019-03-27 16:23 ] · E18AB189011A7F3B7D8DA26866C11340933D8C29

Скачать .torrent

Скачать

11 KB

Статус: проверено
Скачан: 0 раз
Размер: 2,19 GB
terms.php
Профиль ЛС
Показать сообщения:    

Текущее время: 14-Ноя 09:27

Часовой пояс: UTC ± 0



Вы не можете начинать темы
Вы не можете отвечать на сообщения
Вы не можете редактировать свои сообщения
Вы не можете удалять свои сообщения
Вы не можете голосовать в опросах
Вы не можете прикреплять файлы к сообщениям
Вы можете скачивать файлы