Статистика раздачи
Размер:  600 MB   |    Зарегистрирован:  6 месяцев 20 дней   |    Скачан:  0 раз

Полного источника не было: Никогда

   
 

Гость ®

Пол:
Не указан

Мамы чемпионов
Год выпуска: 2018
Производство: «Арт Пикчерс Вижн» при участии «Варвар Студио» по заказу телеканала СТС
Жанр: драма, спорт
Продолжительность: ~00:47:00 серия
Субтитры: нет
Режиссёр: Сергей Арланов
В ролях: Екатерина Вилкова, Ирина Розанова, Павел Трубинер, Мария Звонарёва, Григорий Верник, Нелли Неведина, Михаил Химичев, Мария Валешная, Руслан Ягудин, Ася Дубровская, Данил Акутин, Вячеслав Чепурченко, Софья Лукьянова
Описание: У 17-летней Веры было всё: золото на соревнованиях, любимый человек, обожаемый папа, мама — тренер по плаванию. Но после предательства мамы в один момент от Веры «уплыла» вся её успешная жизнь: девушка неожиданно покидает большой спорт и остаётся одна с ребёнком на руках. Спустя 15 лет, она успешный тренер, среди подопечных которой — её сын Кирилл. Только прошлое не отпускает Веру и преподносит заманчивое предложение. И теперь бывшей чемпионке придётся вновь столкнуться не только с коварством собственной матери, готовой пойти на всё ради больших побед, но и экс-парнем, возглавившим сборную страны по плаванию.

Реклама: Нет.
Кинопоиск
Все раздачи сериала
Sample
Качество: WEBRip - 25Kuzmich
Формат: AVI
Видео кодек: XviD
Аудио кодек: AC3
Видео: 720x400 (1.80:1), 25 fps, XviD ~1580 kbps avg, 0.220 bit/pixel
Аудио: 48.0 kHz, AC3 Dolby Digital, 2/0 (L,R) ch, ~ 192 kbps

Внимание! Раздача ведётся путём добавления новых серий

Раздача ведётся путём добавления новых серий, при каждом добавлении создаётся новый торрент. Чтобы начать докачку новой серии, пользователям необходимо сделать следующее:
- Остановить скачивание.
- Удалить старый торрент у себя из клиента (старые серии удалять не надо).
- Скачать новый торрент и запустить его у себя в клиенте вместо старого, при этом указать клиенту путь в старую папку куда и должно происходить скачивание новых серий.
Ваш клиент при этом должен произвести хеширование (проверку) старой папки (если не производит сам - помогите ему сделать это), и будет докачивать только те серии которых у вас ещё нет. Старые серии при этом не удаляются, а продолжают раздаваться!
Если вы уже удалили старые серии, то предотвратить повторную закачку старых серий можно, отжав галочку в соответствующих местах при запуске нового торрента. По возможности, желательно не удалять старые серии как можно дольше, чтобы релизер не столько продолжал раздавать старые серии, а смог сконцентрироваться на новых.

MI

General
Complete name : D:\Mamy.chempionov.2018.WEB-DLRip.25Kuzmich\Mamy.chempionov.s01.e01.WEB-DLRip.25Kuzmich.avi
Format : AVI
Format/Info : Audio Video Interleave
File size : 600 MiB
Duration : 46 min 57 s
Overall bit rate : 1 787 kb/s
Writing application : VirtualDubMod 1.5.10.3 | www.virtualdub-fr.org || (build 2550/release)
Writing library : VirtualDubMod build 2550/release
Video
ID : 0
Format : MPEG-4 Visual
Format profile : Advanced Simple@L5
Format settings : BVOP1
Format settings, BVOP : 1
Format settings, QPel : No
Format settings, GMC : No warppoints
Format settings, Matrix : Default (MPEG)
Codec ID : XVID
Codec ID/Hint : XviD
Duration : 46 min 57 s
Bit rate : 1 585 kb/s
Width : 720 pixels
Height : 400 pixels
Display aspect ratio : 16:9
Frame rate : 25.000 FPS
Color space : YUV
Chroma subsampling : 4:2:0
Bit depth : 8 bits
Scan type : Progressive
Compression mode : Lossy
Bits/(Pixel*Frame) : 0.220
Stream size : 532 MiB (89%)
Writing library : XviD 73
Audio
ID : 1
Format : AC-3
Format/Info : Audio Coding 3
Codec ID : 2000
Duration : 46 min 57 s
Bit rate mode : Constant
Bit rate : 192 kb/s
Channel(s) : 2 channels
Channel positions : Front: L R
Sampling rate : 48.0 kHz
Frame rate : 31.250 FPS (1536 SPF)
Bit depth : 16 bits
Compression mode : Lossy
Stream size : 64.5 MiB (11%)
Alignment : Split accross interleaves
Interleave, duration : 40 ms (1.00 video frame)
Interleave, preload duratio : 500 ms
Service kind : Complete Main

Скриншоты


[cybertorrent.net].t1516.torrent 
Торрент: Зарегистрирован [ 2019-03-27 16:23 ] · 01A30C0CD2CA63AA4A41559282D8C48A15BF1C99

Скачать .torrent

Скачать

12 KB

Статус: проверено
Скачан: 0 раз
Размер: 600 MB
terms.php
Показать сообщения:    

Текущее время: 17-Окт 05:07

Часовой пояс: UTC ± 0



Вы не можете начинать темы
Вы не можете отвечать на сообщения
Вы не можете редактировать свои сообщения
Вы не можете удалять свои сообщения
Вы не можете голосовать в опросах
Вы не можете прикреплять файлы к сообщениям
Вы можете скачивать файлы