Статистика раздачи
Размер:  1,33 GB   |    Зарегистрирован:  7 месяцев 19 дней   |    Скачан:  0 раз

Полного источника не было: Никогда

 
     
 
 

Гость ®

Пол:
Не указан

Годунов. Продолжение
«История любви. История России»
- Год выпуска: 2018
Производство: Кинокомпания Главкино, Москино
Жанр: Драма, история
Продолжительность: 00:54:13
Субтитры: нет-Режиссёр: Алексей Андрианов, Тимур Алпатов-В ролях: Сергей Безруков, Светлана Ходченкова, Александр Устюгов, Дарья Урсуляк, Илья Ильиных, Мария Андреева, Андрей Мерзликин, Александр Горбатов (II), Евгений Ткачук, Ольга Калицка, Ирина Пегова, Иван Колесников, Александра Никифорова, Кирилл Зайцев (II), Борис Плотников, Станислав Любшин, Пётр Зайченко, Юрий Тарасов, Николай Козак, Владимир Капустин, Антон Батырев, Дмитрий Фрид, Максим Важов, Артём Алексеев (II), Анастасия Михайлова, Ольга Дегтярёва, Алексей Овсянников, Сергей Борисов (III), Николай Денисов-Описание: Вторая часть масштабной саги "Годунов" охватывает годы Смутного времени. Это продолжение истории любви, истории России и истории семьи Годуновых. Борис, первый избранный царь на Руси, обещал расцвет и усиление государства. Но голод, эпидемии и бедствия не дали надеждам сбыться. Потеряв уверенность в своих силах, Борис Годунов допускает роковые ошибки, не отличая друзей от врагов... Начинаются времена переворотов, тревог и больших потрясений. Крушение власти, политические игры, волна самозванства, народные восстания…-Релиз группа: - -Качество: WEBRip
Формат: AVI
Видео кодек: XviD
Аудио кодек: AC3
Видео: 720x400 (16:9), 25.000 fps, XviD, 1600 Kbps, 0.22 bit/pixel
Аудио: 48 kHz, AC3, 2/0 (L,R) ch, 192.00 kbps
Реклама: Нет

MI

General
Complete name : Downloads\01. Годунов. Продолжение .2019.WEB-DLRip.Files-x.avi
Format : AVI
Format/Info : Audio Video Interleave
File size : 699 MiB
Duration : 54mn 13s
Overall bit rate : 1 802 Kbps
Writing application : VirtualDubMod 1.5.10.3 | www.virtualdub-fr.org || (build 2550/release)
Writing library : VirtualDubMod build 2550/release
Video #0
ID : 0
Format : MPEG-4 Visual
Format profile : Advanced Simple@L5
Format settings, BVOP : 1
Format settings, QPel : No
Format settings, GMC : No warppoints
Format settings, Matrix : Custom
Codec ID : XVID
Codec ID/Hint : XviD
Duration : 54mn 13s
Bit rate : 1 600 Kbps
Width : 720 pixels
Height : 400 pixels
Display aspect ratio : 16:9
Frame rate : 25.000 fps
Color space : YUV
Chroma subsampling : 4:2:0
Bit depth : 8 bits
Scan type : Progressive
Compression mode : Lossy
Bits/(Pixel*Frame) : 0.222
Stream size : 621 MiB (89%)
Writing library : XviD 73
Audio #1
ID : 1
Format : AC-3
Format/Info : Audio Coding 3
Mode extension : CM (complete main)
Format settings, Endianness : Big
Codec ID : 2000
Duration : 54mn 13s
Bit rate mode : Constant
Bit rate : 192 Kbps
Channel(s) : 2 channels
Channel positions : Front: L R
Sampling rate : 48.0 KHz
Bit depth : 16 bits
Compression mode : Lossy
Stream size : 74.5 MiB (11%)
Alignment : Split accross interleaves
Interleave, duration : 40 ms (1.00 video frame)
Interleave, preload duration : 500 ms

Скриншоты

Внимание! Раздача ведётся путём добавления новых серий:

(1) остановить скачивание,
(2) удалить старый торрент у себя из клиента (старые серии удалять не надо),
(3) скачать новый торрент и запустить его у себя в клиенте вместо старого, при этом указать клиенту путь в старую папку куда и должно происходить скачивание новых серий.
Ваш клиент при этом должен произвести хеширование (проверку) старой папки (если не производит сам - помогите ему сделать это), и будет докачивать только те серии которых у вас ещё нет. Старые серии при этом не удаляются, а продолжают раздаваться!
Eсли вы уже удалили старые серии, то предотвратить повторную закачку старых серий можно, отжав галочку в соответсвующих местах при запуске нового торрента. По возможности, желательно не удалять старые серии как можно дольше чтобы релизёр не столько продолжал раздавать старые серии, а смог сконцентрироваться на новых
.
Предыдущие и альтернативные раздачи
[cybertorrent.net].t1480.torrent 
Торрент: Зарегистрирован [ 2019-03-26 15:55 ] · 77271C589D0D43050D15AFDCD94786F705247270

Скачать .torrent

Скачать

14 KB

Статус: проверено
Скачан: 0 раз
Размер: 1,33 GB
terms.php
Показать сообщения:    

Текущее время: 14-Ноя 16:49

Часовой пояс: UTC ± 0



Вы не можете начинать темы
Вы не можете отвечать на сообщения
Вы не можете редактировать свои сообщения
Вы не можете удалять свои сообщения
Вы не можете голосовать в опросах
Вы не можете прикреплять файлы к сообщениям
Вы можете скачивать файлы