Статистика раздачи
Размер:  6,62 GB   |    Зарегистрирован:  6 месяцев 21 день   |    Скачан:  0 раз

Полного источника не было: Никогда

   
 

Гость ®

Пол:
Не указан

Орвилл | The Orville- Год выпуска: 2018
Страна: США
Жанр: Фантастика, драма, комедия, приключения
Продолжительность: ~ 00:48:00-Перевод: Профессиональный (многоголосый закадровый) | LostFilm-Режиссёр: Брэннон Брага, Джон Кассар, Роберт Данкан МакНил-В ролях: Сет МакФарлейн, Чад Л. Коулмэн, Скотт Граймз, Марк Джексон, Пенни Джонсон, Дж. Ли, Питер Макон, Эдрианн Палики, Холстон Сейдж, Ларри Джо Кэмпбелл-Описание: История разворачивается в далёком будущем, спустя 400 лет от настоящего времени. В центре повествования оказывается исследовательский космический корабль «Орвилл», который принадлежит межзвёздному флоту Земли. Его разношёрстный экипаж столкнётся со множеством испытаний как за пределами, так и на борту корабля.- -[box=#aed8ff,#003465]Ссылка на предыдущие и альтернативные раздачи[/box]-Качество: WEBRip
Формат: AVI
Видео: XviD, 720x400 (16:9), 23.976 кадров/сек, ~1500 Кбит/сек
Аудио Rus: MP3, 48 kHz, 2 ch, 128 Кбит/сек | LostFilm
Аудио Eng: MP3, 48 kHz, 2 ch, 128 Кбит/сек
Субтитры: Отсутствуют
Реклама: Отсутствует-

Список серий

01. Джа'лоджа / Ja'loja
02. Примитивные позывы / Primal Urges
03. Домой / Home
04. На Земле останутся одни лишь только рыбы / Nothing Left on Earth Excepting Fishes
05. Весь мир - лишь торт на день рождения / All The World Is Birthday Cake
06. Веселый припев / A Happy Refrain
07. Отражатели / Deflectors
08. Идентичность. Часть 1 / Identity, Part I
09. Идентичность. Часть 2 / Identity, Part II
10. Кровь патриотов / Blood of Patriots
11. Неизгладимые впечатления / Lasting Impressions
-

MediaInfo

Общее
Полное имя : E:\The Orville (Season 2) WEBRip LostFilm\The.Orville.s02e01.WEBRip.RGzsRutracker.[Wentworth_Miller].avi
Формат : AVI
Формат/Информация : Audio Video Interleave
Размер файла : 614 Мбайт
Продолжительность : 48 м. 25 с.
Общий поток : 1771 Кбит/сек
Программа кодирования : VirtualDubMod 1.5.10.3 | www.virtualdub-fr.org || (build 2550/release)
Библиотека кодирования : VirtualDubMod build 2550/release
Видео
Идентификатор : 0
Формат : MPEG-4 Visual
Профиль формата : Advanced Simple@L5
Настройки формата : BVOP2
Параметр BVOP формата : 2
Параметр QPel формата : Нет
Параметр GMC формата : Без точки перехода
Параметр матрицы формата : Default (MPEG)
Идентификатор кодека : XVID
Идентификатор кодека/Подсказка : XviD
Продолжительность : 48 м. 25 с.
Битрейт : 1502 Кбит/сек
Ширина : 720 пикселей
Высота : 400 пикселей
Соотношение сторон : 16:9
Частота кадров : 23,976 (24000/1001) кадра/сек
Цветовое пространство : YUV
Субдискретизация насыщенности : 4:2:0
Битовая глубина : 8 бит
Тип развёртки : Прогрессивная
Метод сжатия : С потерями
Бит/(Пиксели*Кадры) : 0.217
Размер потока : 520 Мбайт (85%)
Библиотека кодирования : XviD 61
Аудио #1
Идентификатор : 1
Формат : MPEG Audio
Версия формата : Version 1
Профиль формата : Layer 3
Настройки формата : Joint stereo / MS Stereo
Идентификатор кодека : 55
Идентификатор кодека/Подсказка : MP3
Продолжительность : 48 м. 25 с.
Вид битрейта : Постоянный
Битрейт : 128 Кбит/сек
Каналы : 2 канала
Частота : 48,0 КГц
Метод сжатия : С потерями
Размер потока : 44,3 Мбайт (7%)
Выравнивание : Соединение по промежуткам
Продолжительность промежутка : 42 мс. (1,00 видеокадр)
Время предзагрузки промежутка : 504 мс.
Библиотека кодирования : LAME3.97
Аудио #2
Идентификатор : 2
Формат : MPEG Audio
Версия формата : Version 1
Профиль формата : Layer 3
Настройки формата : Joint stereo / MS Stereo
Идентификатор кодека : 55
Идентификатор кодека/Подсказка : MP3
Продолжительность : 48 м. 25 с.
Вид битрейта : Постоянный
Битрейт : 128 Кбит/сек
Каналы : 2 канала
Частота : 48,0 КГц
Метод сжатия : С потерями
Размер потока : 44,3 Мбайт (7%)
Выравнивание : Соединение по промежуткам
Продолжительность промежутка : 42 мс. (1,00 видеокадр)
Время предзагрузки промежутка : 504 мс.
Библиотека кодирования : LAME3.97ЄЄЄЄЄЄЄЄЄЄЄЄ
-

Скриншоты

-

Внимание! Раздача ведётся путём добавления новых серий

Внимание! Раздача ведётся путём добавления новых серий; при каждом добавлении создаётся новый торрент. Чтобы начать докачку новой серии, пользователям необходимо сделать следующее:
(1) остановить скачивание,
(2) удалить старый торрент у себя из клиента (старые серии удалять не надо),
(3) скачать новый торрент и запустить его у себя в клиенте вместо старого, при этом указать клиенту путь в старую папку куда и должно происходить скачивание новых серий.
Ваш клиент при этом должен произвести хеширование (проверку) старой папки (если не производит сам - помогите ему сделать это), и будет докачивать только те серии которых у вас ещё нет. Старые серии при этом не удаляются, а продолжают раздаваться!
Eсли вы уже удалили старые серии, то предотвратить повторную закачку старых серий можно, отжав галочку в соответствующих местах при запуске нового торрента. По возможности, желательно не удалять старые серии как можно дольше чтобы релизёр не столько продолжал раздавать старые серии, а смог сконцентрироваться на новых.
[cybertorrent.net].t1454.torrent 
Торрент: Зарегистрирован [ 2019-03-26 15:55 ] · 5EFDB16EB1006DB9573A38C644B9BB493D2836BA

Скачать .torrent

Скачать

35 KB

Статус: проверено
Скачан: 0 раз
Размер: 6,62 GB
terms.php
Показать сообщения:    

Текущее время: 17-Окт 05:11

Часовой пояс: UTC ± 0



Вы не можете начинать темы
Вы не можете отвечать на сообщения
Вы не можете редактировать свои сообщения
Вы не можете удалять свои сообщения
Вы не можете голосовать в опросах
Вы не можете прикреплять файлы к сообщениям
Вы можете скачивать файлы