Статистика раздачи
Размер:  1,58 GB   |    Зарегистрирован:  7 месяцев 26 дней   |    Скачан:  0 раз

Полного источника не было: Никогда

 
     
 
 

Гость ®

Пол:
Не указан

Три толстяка- Жанр: сказка
Год выпуска: 1966
Продолжительность: 01:25:28-Режиссёры: Алексей Баталов, Иосиф Шапиро-В ролях:
Лина Бракните, Петя Артемьев, Алексей Баталов, Валентин Никулин, Александр Орлов, Рина Зеленая, Роман Филиппов, Сергей Кулагин, Евгений Моргунов, Борис Христофоров, Павел Луспекаев, Николай Вальяно, Борис Ардов, Николай Карнаухов, Алексей Смирнов, Виктор Сергачев, Лев Степанов, Сергей Карнович-Валуа, Павел Суханов, Георгий Штиль, Герман Лупекин
Описание:
Экранизация произведения Юрия Олеши о ловком канатоходце Тибуле, о смелой и дерзкой девочке Суок, о добром докторе Гаспаре и о тиранах-правителях Трех Толстяках. О том, как любовь и искренность побеждают в наследнике Тутти все ненастоящее и наносное, пробуждая в нем самого обычного мальчишку.-Исходник | Сэмпл | Кинопоиск-Качество видео: DVDRip-AVC, спасибо ilya_l за исходник.
Формат видео: MKV
Видео: x264 (High@L4.1); 714@1015x440, Display aspect ratio 2.306:1, 25.000 fps, 2437 Kbps
Аудио: AC-3; 16 bit 48 Khz; 2.0 ch 192 Kbps

Дополнительная информация

ilya_l писал(а):33027736-обрыв пленки "на самом интересном месте" (51-я минута). Отсутствует около минуты видео. Здесь пришлось помимо "звукорежиссуры" заняться еще и монтажом. Поскольку сцена была ключевая, я взял недостающие кадры из тв-рипа ArjLover'a (лучше, чем у Ленфильма и мне нужен был widescreen).

http://screenshotcomparison.com/comparison/122610
Все немного наоборот. Изображение на диске Ленфильма безусловно лучше, чем в авишке, подрезанной по вертикали для соблюдения 2.35:1 аспекта немецкого трансфера. Для менее заметного для глаз перехода к вырезанным эпизодам целесообразнее было бы добавление бордеров к изданию Ленфильма с сохранением его полного кадра.
http://screenshotcomparison.com/comparison/122611
** Колорометрия NTSC заавторена немцами, сохранена в рипе. Звук с издания Ленфильма.

MediaInfo

General
Unique ID : 203924163583243846933950918078618104083 (0x996A5D847DCF76DB9E183DCDFDBB7113)
Complete name : Три толстяка.1966.mkv
Format : Matroska
Format version : Version 2
File size : 1.58 GiB
Duration : 1 h 25 min
Overall bit rate : 2 631 kb/s
Encoded date : UTC 2017-03-08 17:40:15
Writing application : mkvmerge v7.8.0 ('River Man') 32bit built on Mar 27 2015 16:18:02
Writing library : libebml v1.3.1 + libmatroska v1.4.2
Comment : DVDRip-AVC
Encoded by : george$t®
Originally released : March 6th 2017
Video
ID : 1
Format : AVC
Format/Info : Advanced Video Codec
Format profile : High@L4.1
Format settings, CABAC : Yes
Format settings, ReFrames : 16 frames
Codec ID : V_MPEG4/ISO/AVC
Duration : 1 h 25 min
Bit rate : 2 387 kb/s
Width : 714 pixels
Height : 440 pixels
Display aspect ratio : 2.35:1
Original display aspect rat : 2.35:1
Frame rate mode : Constant
Frame rate : 25.000 FPS
Color space : YUV
Chroma subsampling : 4:2:0
Bit depth : 8 bits
Scan type : Progressive
Bits/(Pixel*Frame) : 0.304
Stream size : 1.43 GiB (91%)
Title : Три толстяка.1966
Writing library : x264 core 148 r2744kMod b97ae06
Encoding settings : cabac=1 / ref=16 / deblock=1:-1:-1 / analyse=0x3:0x133 / me=umh / subme=10 / psy=1 / fade_compensate=0.00 / psy_rd=1.05:0.00 / mixed_ref=1 / me_range=32 / chroma_me=1 / trellis=2 / 8x8dct=1 / cqm=0 / deadzone=21,11 / fast_pskip=1 / chroma_qp_offset=-2 / threads=12 / lookahead_threads=2 / sliced_threads=0 / nr=0 / decimate=1 / interlaced=0 / bluray_compat=0 / constrained_intra=0 / bframes=8 / b_pyramid=2 / b_adapt=2 / b_bias=0 / direct=3 / weightb=1 / open_gop=0 / weightp=2 / keyint=250 / keyint_min=25 / scenecut=40 / intra_refresh=0 / rc_lookahead=60 / rc=crf / mbtree=0 / crf=18.0000 / qcomp=0.70 / qpmin=0 / qpmax=69 / qpstep=4 / vbv_maxrate=62500 / vbv_bufsize=78125 / crf_max=0.0 / nal_hrd=none / filler=0 / ip_ratio=1.45 / pb_ratio=1.30 / aq=3:0.80
Language : Russian
Default : Yes
Forced : No
Color range : Limited
Color primaries : BT.601 NTSC
Transfer characteristics : BT.601
Matrix coefficients : BT.601
Audio
ID : 2
Format : AC-3
Format/Info : Audio Coding 3
Mode extension : CM (complete main)
Format settings, Endianness : Big
Codec ID : A_AC3
Duration : 1 h 25 min
Bit rate mode : Constant
Bit rate : 192 kb/s
Channel(s) : 2 channels
Channel positions : Front: L R
Sampling rate : 48.0 kHz
Frame rate : 31.250 FPS (1536 spf)
Compression mode : Lossy
Stream size : 118 MiB (7%)
Title : AC-3; 16 bit 48 Khz; 2.0 ch 192 Kbps; CBR
Language : Russian
Default : Yes
Forced : No
[cybertorrent.net].t142.torrent 
Торрент: Зарегистрирован [ 2019-03-18 10:04 ] · 013F11765FBA19B94B5E22A2D6B46B02CE55810C

Скачать .torrent

Скачать

16 KB

Статус: проверено
Скачан: 0 раз
Размер: 1,58 GB
terms.php
Показать сообщения:    

Текущее время: 14-Ноя 08:32

Часовой пояс: UTC ± 0



Вы не можете начинать темы
Вы не можете отвечать на сообщения
Вы не можете редактировать свои сообщения
Вы не можете удалять свои сообщения
Вы не можете голосовать в опросах
Вы не можете прикреплять файлы к сообщениям
Вы можете скачивать файлы