Статистика раздачи
Размер:  1,18 GB   |    Зарегистрирован:  7 месяцев 23 дня   |    Скачан:  0 раз

Полного источника не было: 5 месяцев 30 дней

 
     
 
 

serzh ®

Пол:
Не указан
Стаж:
8 месяцев 4 дня
Сообщений:
384

Признание молодой домохозяйки / Confessions of a Young American Housewife
Страна: США
Жанр: драма
Год выпуска: 1974
Продолжительность: 01:13:01
Перевод: Одноголосый закадровый
Субтитры: русские
Оригинальная аудиодорожка: английский
Режиссер: Джозеф В. Сарно / Joseph W. Sarno
В ролях: Ребекка Брук, Дженнифер Уэллс, Крис Джордан, Эрик Эдвардс, Дэвид Хаусман, Лана Джойс, Эрика Итон, Арлана Блу
Описание: Четверо — Кэрол, Анна Эди и Пит скучают в загородном доме. Кэрол замужем за Эди, Анна за Питом, но это не мешает им обмениваться партнерами и заниматься групповым сексом. Однажды за этим занятием их застает дочь Кэрол Дженнифер — очаровательное существо. Но скоро выясняется, что между матерью и дочкой существует запретная сексуальная привязанность. Как далеко пойдет каждый из персонажей для удовлетворения своих потайных сексуальных фантазий?..
Сэмпл: http://multi-up.com/1227337
Качество видео: DVDRip
Формат видео: AVI
Видео: 704x528 (1.33:1), 23.976 fps, XviD build 50 ~1913 kbps avg, 0.21 bit/pixel
Аудио: 48 kHz, AC3 Dolby Digital, 2/0 (L,R) ch, ~192 kbps - рус.
Аудио 2: 48 kHz, AC3 Dolby Digital, 2/0 (L,R) ch, ~192 kbps - eng. (отдельным файлом)
Формат субтитров: softsub (SRT)

MediaInfo

Общее
Полное имя : E:\Confessions.of.a.Young.American.Housewife_1974.DVDRip\Confessions.of.a.Young.American.Housewife_1974.DVDRip.avi
Формат : AVI
Формат/Информация : Audio Video Interleave
Размер файла : 1,08 Гбайт
Продолжительность : 1 ч. 13 м.
Общий поток : 2115 Кбит/сек
Программа кодирования : VirtualDubMod 1.5.10.3 | www.virtualdub-fr.org || (build 2550/release)
Библиотека кодирования : VirtualDubMod build 2550/release
Видео
Идентификатор : 0
Формат : MPEG-4 Visual
Профиль формата : Advanced Simple@L5
Настройки формата : BVOP1
Параметр BVOP формата : 1
Параметр QPel формата : Нет
Параметр GMC формата : Без точки перехода
Параметр матрицы формата : Default (H.263)
Идентификатор кодека : DX50
Идентификатор кодека/Подсказка : DivX 5
Продолжительность : 1 ч. 13 м.
Битрейт : 1914 Кбит/сек
Ширина : 704 пикселя
Высота : 528 пикселей
Соотношение сторон : 4:3
Частота кадров : 23,976 (24000/1001) кадра/сек
Цветовое пространство : YUV
Субдискретизация насыщенности : 4:2:0
Битовая глубина : 8 бит
Тип развёртки : Прогрессивная
Метод сжатия : С потерями
Бит/(Пиксели*Кадры) : 0.215
Размер потока : 999 Мбайт (90%)
Библиотека кодирования : XviD 1.2.1 (UTC 2008-12-04)
Аудио
Идентификатор : 1
Формат : AC-3
Формат/Информация : Audio Coding 3
Идентификатор кодека : 2000
Продолжительность : 1 ч. 13 м.
Вид битрейта : Постоянный
Битрейт : 192 Кбит/сек
Каналы : 2 канала
Расположение каналов : Front: L R
Частота : 48,0 КГц
Частота кадров : 31,250 кадров/сек (1536 SPF)
Битовая глубина : 16 бит
Метод сжатия : С потерями
Размер потока : 100 Мбайт (9%)
Выравнивание : Разделение по промежуткам
Продолжительность промежутка : 42 мс. (1,00 видеокадр)
Время предзагрузки промежутка : 500 мс.
ServiceKind/String : Complete Main

Скриншот c названием фильма

[cybertorrent.net].t1419.torrent 
Торрент: Зарегистрирован [ 2019-03-24 17:09 ] · 7DED071DF9CCC47C96B7B6762DE119A5BFD77D66

Скачать .torrent

Скачать

13 KB

Статус: проверено
Скачан: 0 раз
Размер: 1,18 GB
terms.php
Профиль ЛС
Показать сообщения:    

Текущее время: 17-Ноя 05:34

Часовой пояс: UTC ± 0



Вы не можете начинать темы
Вы не можете отвечать на сообщения
Вы не можете редактировать свои сообщения
Вы не можете удалять свои сообщения
Вы не можете голосовать в опросах
Вы не можете прикреплять файлы к сообщениям
Вы можете скачивать файлы