Статистика раздачи
Размер:  2,21 GB   |    Зарегистрирован:  8 месяцев 16 дней   |    Скачан:  0 раз

Полного источника не было: Никогда

 
     
 
 

serzh ®

Пол:
Не указан
Стаж:
8 месяцев 29 дней
Сообщений:
384

Без гроша в Беверли Хиллз / Down and Out in Beverly Hills / Fullscreen
Страна: США
Жанр: комедия
Год выпуска: 1986
Продолжительность: 01:38:57
Перевод: Профессиональный (двухголосый закадровый) Видеосервис
Субтитры: нет
Оригинальная аудиодорожка: нет
Режиссер: Пол Мазурски / Paul Mazursky
В ролях: Ник Нолти, Бетт Мидлер, Ричард Дрейфусс, Литтл Ричард, Трейси Нельсон, Элизабет Пенья, Эван Ричардс, Фелтон Перри, Элой Касадос, Майкл Яма, Доналд Ф. Мюик, Майк (собака), Пол Мазурски...
Описание: Иногда богатые тоже смеются. Жизнь миллионера Дэйва Уайтмэна похожа на сумасшедший дом: его жена занята только йогой и аэробикой, сын вступил в критический возраст, а дочь страдает от систематического переедания.
Но ироничной судьбе этого показалось мало: однажды Дэйв выловил в своем роскошном бассейне несчастного бродягу и взял его к себе в дом. Однако у этого нищего вдруг обнаружилась такая богатая фантазия и жажда деятельности, что через некоторое время семью Уайтмэнов стало просто не узнать!
Награды и номинации:
Золотой глобус, 1987 год
Номинации:
Лучший фильм (комедия или мюзикл)
Лучшая женская роль (комедия или мюзикл) (Бетт Мидлер)
Доп. информация: Оцифровка лицензионной VHS из собственной коллекции.
Fullscreen!
Сэмпл: https://yadi.sk/i/CCVQ5zk3ARyCuQ
Качество видео: VHSRip-AVC
Формат видео: MP4
Видео: AVC, 720х576, 5:4, 25,000 кадров/сек, 3000 Кбит/сек
Аудио: AAC, 64,0 КГц, 192 Кбит/сек, 2.0 Hi-Fi

MediaInfo

General
Complete name : G:\torrents\Down and Out in Beverly Hills\Down and Out in Beverly Hills.mp4
Format : MPEG-4
Format profile : Base Media
Codec ID : isom (isom/iso2/avc1/mp41)
File size : 2.21 GiB
Duration : 1 h 38 min
Overall bit rate : 3 196 kb/s
Writing application : Lavf57.56.101
Video
ID : 1
Format : AVC
Format/Info : Advanced Video Codec
Format profile : Baseline@L3
Format settings, CABAC : No
Format settings, ReFrames : 1 frame
Format settings, GOP : M=1, N=50
Codec ID : avc1
Codec ID/Info : Advanced Video Coding
Duration : 1 h 38 min
Bit rate : 3 000 kb/s
Width : 720 pixels
Height : 576 pixels
Display aspect ratio : 5:4
Frame rate mode : Constant
Frame rate : 25.000 FPS
Standard : PAL
Color space : YUV
Chroma subsampling : 4:2:0
Bit depth : 8 bits
Scan type : Progressive
Bits/(Pixel*Frame) : 0.289
Stream size : 2.07 GiB (94%)
Audio
ID : 2
Format : AAC
Format/Info : Advanced Audio Codec
Format profile : LTP
Codec ID : 40
Duration : 1 h 38 min
Bit rate mode : Constant
Bit rate : 192 kb/s
Channel(s) : 2 channels
Channel(s)_Original : 3 channels
Channel positions : Front: L C R
Sampling rate : 64.0 kHz
Frame rate : 62.500 FPS (1024 spf)
Compression mode : Lossy
Stream size : 134 MiB (6%)
Default : Yes
Alternate group : 1

Скриншот c названием фильма

[cybertorrent.net].t1416.torrent 
Торрент: Зарегистрирован [ 2019-03-24 17:09 ] · 935FFB800E9E025E991D720A9DE4DE712081BCB5

Скачать .torrent

Скачать

12 KB

Статус: проверено
Скачан: 0 раз
Размер: 2,21 GB
terms.php
Профиль [ЛС]
Показать сообщения:    

Текущее время: 10-Дек 15:29

Часовой пояс: UTC ± 0



Вы не можете начинать темы
Вы не можете отвечать на сообщения
Вы не можете редактировать свои сообщения
Вы не можете удалять свои сообщения
Вы не можете голосовать в опросах
Вы не можете прикреплять файлы к сообщениям
Вы можете скачивать файлы