Статистика раздачи
Размер:  744 MB   |    Зарегистрирован:  7 месяцев 23 дня   |    Скачан:  0 раз

Полного источника не было: Никогда

 
     
 
 

Гость ®

Пол:
Не указан

Щит города
Год выпуска: 1979
Жанр: драма
Продолжительность: 01:30:38.600 (135965 frames)
Субтитры: нет
Режиссер: Леонид Агранович
В ролях: Ануар Молдабеков, Идрис Ногайбаев, Фарида Шарипова, Раимбек Сейтметов, Владимир Захаров, Кененбай Кожабеков
Описание: Сказочная красота горного озера, у которого семья Батыровых проводит свои выходные дни, исчезает в мгновение – с горных ледников обрушился сель, несущий разрушения и смерть. Погибает дочь Батыровых, получает тяжелые травмы сын. Касым понимает, что в случившейся трагедии есть доля и его вины, ведь это его трест строил в ущельях противоселевые преграды, которые были разрушены. Значит, город совсем не защищен.
Качество: SATRip
Формат: AVI
Видео кодек: XviD
Аудио кодек: МР3
Видео: 656x416 (1.58:1), 25 fps, XviD build 73 ~1010 kbps avg, 0.15 bit/pixel
Аудио: 48 kHz, MPEG Layer 3, 2 ch, ~128.00 kbps avg

Медиаинфо

General
Complete name : E:\004 Мои раздачи\Щит города 745\shit_goroda_745_by_bm11.avi
Format : AVI
Format/Info : Audio Video Interleave
File size : 744 MiB
Duration : 1h 30mn
Overall bit rate : 1 148 Kbps
Director : bm11
Writing application : VirtualDubMod 1.5.10.3 | www.virtualdub-fr.org || (build 2550/release)
Video
ID : 0
Format : MPEG-4 Visual
Format profile : Advanced Simple@L5
Format settings, BVOP : 1
Format settings, QPel : No
Format settings, GMC : No warppoints
Format settings, Matrix : Custom
Codec ID : XVID
Codec ID/Hint : XviD
Duration : 1h 30mn
Bit rate : 1 010 Kbps
Width : 656 pixels
Height : 416 pixels
Display aspect ratio : 16:10
Frame rate : 25.000 fps
Color space : YUV
Chroma subsampling : 4:2:0
Bit depth : 8 bits
Scan type : Progressive
Compression mode : Lossy
Bits/(Pixel*Frame) : 0.148
Stream size : 655 MiB (88%)
Writing library : XviD 73
Audio
ID : 1
Format : MPEG Audio
Format version : Version 1
Format profile : Layer 3
Codec ID : 55
Codec ID/Hint : MP3
Duration : 1h 30mn
Bit rate mode : Constant
Bit rate : 128 Kbps
Channel(s) : 2 channels
Sampling rate : 48.0 KHz
Compression mode : Lossy
Stream size : 83.0 MiB (11%)
Alignment : Aligned on interleaves
Interleave, duration : 40 ms (1.00 video frame)
Interleave, preload duratio : 504 ms
Writing library : LAME3.99r
Encoding settings : -m s -V 4 -q 2 -lowpass 17 -b 128
[cybertorrent.net].t1415.torrent 
Торрент: Зарегистрирован [ 2019-03-24 17:09 ] · 1B563918799C2161346B6EF9852FBA7A58B48316

Скачать .torrent

Скачать

15 KB

Статус: проверено
Скачан: 0 раз
Размер: 744 MB
terms.php
Показать сообщения:    

Текущее время: 16-Ноя 21:49

Часовой пояс: UTC ± 0



Вы не можете начинать темы
Вы не можете отвечать на сообщения
Вы не можете редактировать свои сообщения
Вы не можете удалять свои сообщения
Вы не можете голосовать в опросах
Вы не можете прикреплять файлы к сообщениям
Вы можете скачивать файлы