Статистика раздачи
Размер:  1,46 GB   |    Зарегистрирован:  7 месяцев 27 дней   |    Скачан:  0 раз

Полного источника не было: Никогда

 
     
 
 

Гость ®

Пол:
Не указан

Щит города
Год выпуска: 1979
Жанр: драма
Продолжительность: 01:30:38.600 (135965 frames)
Субтитры: нет
Режиссер: Леонид Агранович
В ролях: Ануар Молдабеков, Идрис Ногайбаев, Фарида Шарипова, Раимбек Сейтметов, Владимир Захаров, Кененбай Кожабеков
Описание: Сказочная красота горного озера, у которого семья Батыровых проводит свои выходные дни, исчезает в мгновение – с горных ледников обрушился сель, несущий разрушения и смерть. Погибает дочь Батыровых, получает тяжелые травмы сын. Касым понимает, что в случившейся трагедии есть доля и его вины, ведь это его трест строил в ущельях противоселевые преграды, которые были разрушены. Значит, город совсем не защищен.
Качество: SATRip
Формат: AVI
Видео кодек: XviD
Аудио кодек: AC3
Видео: 656x416 (1.58:1), 25 fps, XviD build 73 ~2096 kbps avg, 0.31 bit/pixel
Аудио: 48 kHz, AC3 Dolby Digital, 2/0 (L,R) ch, ~192.00 kbps avg

Медиаинфо

General
Complete name : E:\004 Мои раздачи\Щит города 1,46\shit_goroda_1.46_by_bm11.avi
Format : AVI
Format/Info : Audio Video Interleave
File size : 1.46 GiB
Duration : 1h 30mn
Overall bit rate : 2 299 Kbps
Director : bm11
Writing application : VirtualDubMod 1.5.10.3 | www.virtualdub-fr.org || (build 2550/release)
Video
ID : 0
Format : MPEG-4 Visual
Format profile : Advanced Simple@L5
Format settings, BVOP : 1
Format settings, QPel : No
Format settings, GMC : No warppoints
Format settings, Matrix : Custom
Codec ID : XVID
Codec ID/Hint : XviD
Duration : 1h 30mn
Bit rate : 2 097 Kbps
Width : 656 pixels
Height : 416 pixels
Display aspect ratio : 16:10
Frame rate : 25.000 fps
Color space : YUV
Chroma subsampling : 4:2:0
Bit depth : 8 bits
Scan type : Progressive
Compression mode : Lossy
Bits/(Pixel*Frame) : 0.307
Stream size : 1.33 GiB (91%)
Writing library : XviD 73
Audio
ID : 1
Format : AC-3
Format/Info : Audio Coding 3
Mode extension : CM (complete main)
Format settings, Endianness : Big
Codec ID : 2000
Duration : 1h 30mn
Bit rate mode : Constant
Bit rate : 192 Kbps
Channel(s) : 2 channels
Channel positions : Front: L R
Sampling rate : 48.0 KHz
Frame rate : 31.250 fps (1536 spf)
Compression mode : Lossy
Stream size : 124 MiB (8%)
Alignment : Split accross interleaves
Interleave, duration : 40 ms (1.00 video frame)
Interleave, preload duratio : 500 ms
[cybertorrent.net].t1414.torrent 
Торрент: Зарегистрирован [ 2019-03-24 17:09 ] · 0B12791B973C6089E4BED2307E265590A9417C6F

Скачать .torrent

Скачать

15 KB

Статус: проверено
Скачан: 0 раз
Размер: 1,46 GB
terms.php
Показать сообщения:    

Текущее время: 21-Ноя 09:22

Часовой пояс: UTC ± 0



Вы не можете начинать темы
Вы не можете отвечать на сообщения
Вы не можете редактировать свои сообщения
Вы не можете удалять свои сообщения
Вы не можете голосовать в опросах
Вы не можете прикреплять файлы к сообщениям
Вы можете скачивать файлы