Статистика раздачи
Размер:  5,17 GB   |    Зарегистрирован:  3 месяца 6 дней   |    Скачан:  0 раз
DL-List: Нет

Полного источника не было: Никогда

 
     
 
 

MAGNAT ®

Пол:
Мужской
Стаж:
1 год 3 месяца
Сообщений:
8778

Королевство / Kingdom
Год выпуска: 2019
Страна: Южная Корея, США
Жанр: ужасы, боевик, триллер
Продолжительность: 00:56:49
Перевод: Профессиональный (многоголосый закадровый) - Jaskier
Режиссёр: Ким Сон-хун
В ролях: Джи Хун Чжу, Ду На Пэ, Сын Рён Рю, Хе Чжун Ким, Сан Хо Ким (I), Сон Гю Ким, Чжун Хо Хо, Сок Хо Чон, Тэ Ёль Ким, Сок Вон Чон, Сон Гю Чжин
Описание: Чосон после разорительной войны. Долго болевший правитель умирает, но возвращается к жизни в виде плотоядной нежити, что тщательно скрывает королевский советник Чо, при этом не забывая регулярно кормить монарха придворными. После неудачной попытки увидеться с отцом, наследный принц Ли Чхан, рискуя быть обвинённым в государственной измене, покидает дворец, чтобы встретиться с лечившим правителя лекарем Ли. Прибыв в сельскую больницу, где практиковал Ли, принц и его телохранитель обнаруживают полный разгром и кучи трупов, спрятанных от солнца.

Качество: WEB-DLRip
Формат: AVI
Видео: 704x352 (2.00:1), 23.976 fps, XviD build 73 ~1995 kbps avg, 0.34 bit/pixel
Аудио: 48 kHz, AC3 Dolby Digital, 3/2 (L,C,R,l,r) + LFE ch, ~384 kbps
Субтитры: отсутствуют
Реклама: вырезана полностью

MediaInfo

Общее
Полное имя : H:\Kingdom.2019.web-dlrip_[teko]\Season_01\s01e01.avi
Формат : AVI
Формат/Информация : Audio Video Interleave
Размер файла : 971 Мбайт
Продолжительность : 56 м.
Общий поток : 2389 Кбит/сек
Программа кодирования : VirtualDubMod 1.5.10.3 | www.virtualdub-fr.org || (build 2550/release)
Библиотека кодирования : VirtualDubMod build 2550/release
Видео
Идентификатор : 0
Формат : MPEG-4 Visual
Профиль формата : Advanced Simple@L5
Параметр BVOP формата : 2
Параметр QPel формата : Нет
Параметр GMC формата : Без точки перехода
Параметр матрицы формата : Выборочная
Идентификатор кодека : XVID
Идентификатор кодека/Подсказка : XviD
Продолжительность : 56 м.
Битрейт : 1996 Кбит/сек
Ширина : 704 пикселя
Высота : 352 пикселя
Соотношение сторон : 2,000
Частота кадров : 23,976 кадра/сек
Цветовое пространство : YUV
Субдискретизация насыщенности : 4:2:0
Битовая глубина : 8 бит
Тип развёртки : Прогрессивная
Метод сжатия : С потерями
Бит/(Пиксели*Кадры) : 0.336
Размер потока : 811 Мбайт (84%)
Библиотека кодирования : XviD 73
Аудио
Идентификатор : 1
Формат : AC-3
Формат/Информация : Audio Coding 3
Расширение режима : CM (complete main)
Параметр Endianness формата : Big
Идентификатор кодека : 2000
Продолжительность : 56 м.
Вид битрейта : Постоянный
Битрейт : 384 Кбит/сек
Каналы : 6 каналов
Расположение каналов : Front: L C R, Side: L R, LFE
Частота : 48,0 КГц
Битовая глубина : 16 бит
Метод сжатия : С потерями
Размер потока : 156 Мбайт (16%)
Выравнивание : Разделение по промежуткам
Продолжительность промежутка : 42 мс. (1,00 видеокадр)
Время предзагрузки промежутка : 500 мс.
[cybertorrent.net].t13994.torrent 
Торрент: Зарегистрирован [ 2020-03-31 11:36 ] · 10195990FD90BE5D8EC6CB877ED90F9824A2E70F

Скачать .torrent

Скачать

14 KB

Статус: проверено
Скачан: 0 раз
Размер: 5,17 GB  ·  Тип торрента
terms.php
Профиль [ЛС]
Показать сообщения:    

Текущее время: 06-Июл 18:14

Часовой пояс: UTC ± 0



Вы не можете начинать темы
Вы не можете отвечать на сообщения
Вы не можете редактировать свои сообщения
Вы не можете удалять свои сообщения
Вы не можете голосовать в опросах
Вы не можете прикреплять файлы к сообщениям
Вы можете скачивать файлы