Статистика раздачи
Размер:  6,11 GB   |    Зарегистрирован:  3 месяца 6 дней   |    Скачан:  0 раз
DL-List: Нет

Полного источника не было: Никогда

 
     
 
 

MAGNAT ®

Пол:
Мужской
Стаж:
1 год 3 месяца
Сообщений:
8778

Слэшер | Slasher- Год выпуска: 2019
Страна: Канада, Великобритания, США
Жанр: ужасы, драма, детектив
Продолжительность: ~ 00:46:00
Перевод: Профессиональный (многоголосый закадровый) TVShows--Режиссёр: Крэйг Дэвид Уоллес, Фелипе Родригез, Адам МакДональд
В ролях: Дин МакДермотт, Джоэнн Ванникола, Пола Бранкати, Кристофер Жако, Джим Уотсон, Паулино Нюнс, Эрин Карплак, Кэти МакГрат, Лесли Хоуп, Барака Рахмани и др.-Описание: Сара Беннетт, молодая женщина, которая возвращается в небольшой город, где родилась, и обнаруживает себя в центре ужасающей серии убийств, основанных на широко известном убийстве её родителей. Вскоре все, кто окружает Сару, становятся подозреваемыми или жертвами, по мере того, как убийств становится всё больше и раскрываются давно похороненные секреты. Сара начинает допрашивать всех и каждого вокруг себя, включая своего мужа Дилана.--Качество: WEB-DLRip
Формат: AVI
Видео: XVID, 720x400, 23.976 fps, ~2000 kbps avg, 0.29 bit/pixel
Аудио Rus: AC3, 48.0 KHz, 6 channels, 384 kbps
Субтитры: нет
Реклама отсутствует

MediaInfo

General
Complete name : E:\Слэшер (Сезон 3) TVShows\Slasher.S03E01.WEB-DLRip.RGzsRutracker.Celta88.avi
Format : AVI
Format/Info : Audio Video Interleave
File size : 789 MiB
Duration : 46 min 6 s
Overall bit rate : 2 393 kb/s
Writing application : VirtualDubMod 1.5.10.3 | www.virtualdub-fr.org || (build 2550/release)
Writing library : VirtualDubMod build 2550/release
Video
ID : 0
Format : MPEG-4 Visual
Format profile : Advanced Simple@L5
Format settings, BVOP : 1
Format settings, QPel : No
Format settings, GMC : No warppoints
Format settings, Matrix : Custom
Codec ID : XVID
Codec ID/Hint : XviD
Duration : 46 min 6 s
Bit rate : 2 000 kb/s
Width : 720 pixels
Height : 400 pixels
Display aspect ratio : 16:9
Frame rate : 23.976 (24000/1001) FPS
Color space : YUV
Chroma subsampling : 4:2:0
Bit depth : 8 bits
Scan type : Progressive
Compression mode : Lossy
Bits/(Pixel*Frame) : 0.290
Stream size : 660 MiB (84%)
Writing library : XviD 73
Audio
ID : 1
Format : AC-3
Format/Info : Audio Coding 3
Mode extension : CM (complete main)
Format settings, Endianness : Big
Codec ID : 2000
Duration : 46 min 6 s
Bit rate mode : Constant
Bit rate : 384 kb/s
Channel(s) : 6 channels
Channel positions : Front: L C R, Side: L R, LFE
Sampling rate : 48.0 kHz
Frame rate : 31.250 FPS (1536 spf)
Bit depth : 16 bits
Compression mode : Lossy
Stream size : 127 MiB (16%)
Alignment : Split accross interleaves
Interleave, duration : 42 ms (1.00 video frame)
Interleave, preload duratio : 500 ms

Скриншоты

[cybertorrent.net].t13963.torrent 
Торрент: Зарегистрирован [ 2020-03-31 10:19 ] · FCF15FE911E6AFA1C149BBC4393C01E3D3FC0C19

Скачать .torrent

Скачать

32 KB

Статус: проверено
Скачан: 0 раз
Размер: 6,11 GB  ·  Тип торрента
terms.php
Профиль [ЛС]
Показать сообщения:    

Текущее время: 06-Июл 16:11

Часовой пояс: UTC ± 0



Вы не можете начинать темы
Вы не можете отвечать на сообщения
Вы не можете редактировать свои сообщения
Вы не можете удалять свои сообщения
Вы не можете голосовать в опросах
Вы не можете прикреплять файлы к сообщениям
Вы можете скачивать файлы