Статистика раздачи
Размер:  2,08 GB   |    Зарегистрирован:  7 месяцев 25 дней   |    Скачан:  0 раз

Полного источника не было: Никогда

 
     
 
 

serzh ®

Пол:
Не указан
Стаж:
8 месяцев 5 дней
Сообщений:
384

Бетонные джунгли / The Concrete Jungle
Страна: США
Жанр: триллер, драма, криминал
Год выпуска: 1982
Продолжительность: 01:40:50
Перевод: Авторский (одноголосый закадровый) Константин Дьяконов
Субтитры: нет
Оригинальная аудиодорожка: английский
Режиссер: Том ДеСимоне / Tom DeSimone
В ролях: Джилл Ст. Джон, Трэйси Э. Брегман, Барбара Луна, Джун Бэррет, Эйми Экклс, Сондра Карри, Питер Браун, Сьюзэн Мечснер, Роберт Миано, Ники Дантин...
Описание: Молодая и наивная девушка Элизабет попадает в исправительное учреждение после того, как на таможне в аэропорту у нее обнаруживают кокаин, подброшенный ее несознательным другом Дэнни, чтобы она пронесла его в самолет. В тюрьме Элизабет сразу осознает разницу между прошлой беззаботной и веселой жизнью на воле и суровой и агрессивной атмосферой, царящей за решеткой. Однажды Элизабет становится свидетельницей того, как надзирательница Флетчер и одна из ее сокамерниц по прозвищу Кэт совершают убийство. Мало того, Элизабет в курсе того, что насквозь прогнившие охранницы тюрьмы занимаются рэкетом, сутенерство и распространением наркотиков среди заключенных. Начальница исправительного учреждения Шелли Мейерс также знает о порядках, существующих на ее территории, но у нее нет доказательств, чтобы выдвинуть обвинения. Вскоре Майерс начинает подозревать, что Элизабет знает больше, чем рассказывает, ибо слишком пристально за ней наблюдает Флетчер, стремящаяся избавиться от девушки раньше, чем она заговорит…
Доп. информация: Синхронизация звука - Dreven.
Сэмпл: http://sendfile.su/1483965
Качество видео: HDRip-AVC
Формат видео: MKV
Видео: 1280x720 (16:9), 23.976 fps, AVC, ~2560 Kbps, 0.116 bits/pixel
Аудио 1: Russian, 48.0 KHz, AC3, 2 ch, 192 Kbps - Константин Дьяконов
Аудио 2: English, 48.0 KHz, AC3, 2 ch, 192 Kbps

MediaInfo

General
Unique ID : 328416028547488882711958628050745370774 (0xF712A0591AE07A4C0DDC454E9E632896)
Complete name : C:\The Concrete Jungle.mkv
Format : Matroska
Format version : Version 4 / Version 2
File size : 2.08 GiB
Duration : 1 h 40 min
Overall bit rate : 2 946 kb/s
Encoded date : UTC 2019-03-23 09:37:12
Writing application : mkvmerge v32.0.0 ('Astral Progressions') 64-bit
Writing library : libebml v1.3.7 + libmatroska v1.5.0
Video
ID : 1
Format : AVC
Format/Info : Advanced Video Codec
Format profile : High@L4
Format settings : CABAC / 8 Ref Frames
Format settings, CABAC : Yes
Format settings, ReFrames : 8 frames
Codec ID : V_MPEG4/ISO/AVC
Duration : 1 h 40 min
Bit rate : 2 560 kb/s
Width : 1 280 pixels
Height : 720 pixels
Display aspect ratio : 16:9
Frame rate mode : Constant
Frame rate : 23.976 (24000/1001) FPS
Color space : YUV
Chroma subsampling : 4:2:0
Bit depth : 8 bits
Scan type : Progressive
Bits/(Pixel*Frame) : 0.116
Stream size : 1.80 GiB (87%)
Writing library : x264 core 142 r2389 956c8d8
Encoding settings : cabac=1 / ref=8 / deblock=1:-2:-2 / analyse=0x3:0x133 / me=umh / subme=9 / psy=1 / psy_rd=1.00:0.25 / mixed_ref=0 / me_range=32 / chroma_me=1 / trellis=2 / 8x8dct=1 / cqm=0 / deadzone=6,6 / fast_pskip=0 / chroma_qp_offset=-4 / threads=12 / lookahead_threads=1 / sliced_threads=0 / nr=0 / decimate=0 / interlaced=0 / bluray_compat=0 / constrained_intra=0 / bframes=4 / b_pyramid=2 / b_adapt=2 / b_bias=0 / direct=3 / weightb=1 / open_gop=0 / weightp=2 / keyint=240 / keyint_min=24 / scenecut=40 / intra_refresh=0 / rc_lookahead=80 / rc=2pass / mbtree=1 / bitrate=2560 / ratetol=1.0 / qcomp=0.00 / qpmin=0 / qpmax=69 / qpstep=4 / cplxblur=20.0 / qblur=0.5 / vbv_maxrate=20000 / vbv_bufsize=25000 / nal_hrd=none / filler=0 / ip_ratio=1.10 / aq=1:1.00
Language : English
Default : Yes
Forced : No
Color range : Limited
Color primaries : BT.709
Transfer characteristics : BT.709
Matrix coefficients : BT.709
Audio #1
ID : 2
Format : AC-3
Format/Info : Audio Coding 3
Commercial name : Dolby Digital
Codec ID : A_AC3
Duration : 1 h 40 min
Bit rate mode : Constant
Bit rate : 192 kb/s
Channel(s) : 2 channels
Channel layout : L R
Sampling rate : 48.0 kHz
Frame rate : 31.250 FPS (1536 SPF)
Bit depth : 16 bits
Compression mode : Lossy
Stream size : 138 MiB (7%)
Title : Константин Дьяконов
Language : Russian
Service kind : Complete Main
Default : Yes
Forced : No
Audio #2
ID : 3
Format : AC-3
Format/Info : Audio Coding 3
Commercial name : Dolby Digital
Codec ID : A_AC3
Duration : 1 h 40 min
Bit rate mode : Constant
Bit rate : 192 kb/s
Channel(s) : 2 channels
Channel layout : L R
Sampling rate : 48.0 kHz
Frame rate : 31.250 FPS (1536 SPF)
Bit depth : 16 bits
Compression mode : Lossy
Stream size : 138 MiB (7%)
Language : English
Service kind : Complete Main
Default : No
Forced : No
Menu
00:00:00.000 : :Chapter 1
00:05:26.326 : :Chapter 2
00:10:25.208 : :Chapter 3
00:18:27.440 : :Chapter 4
00:23:52.848 : :Chapter 5
00:30:37.836 : :Chapter 6
00:40:16.956 : :Chapter 7
00:47:38.272 : :Chapter 8
00:55:00.214 : :Chapter 9
01:03:06.616 : :Chapter 10
01:11:16.606 : :Chapter 11
01:17:35.025 : :Chapter 12
01:24:24.810 : :Chapter 13
01:30:50.820 : :Chapter 14
01:37:21.377 : :Chapter 15

Скриншоты

[cybertorrent.net].t1395.torrent 
Торрент: Зарегистрирован [ 2019-03-23 16:40 ] · 4905F295018596A2AA7A0ACB27FC77A2684E29E8

Скачать .torrent

Скачать

11 KB

Статус: проверено
Скачан: 0 раз
Размер: 2,08 GB
terms.php
Профиль ЛС
Показать сообщения:    

Текущее время: 17-Ноя 17:46

Часовой пояс: UTC ± 0



Вы не можете начинать темы
Вы не можете отвечать на сообщения
Вы не можете редактировать свои сообщения
Вы не можете удалять свои сообщения
Вы не можете голосовать в опросах
Вы не можете прикреплять файлы к сообщениям
Вы можете скачивать файлы